<?xml version="1.0" standalone="no"?>
<!DOCTYPE svg PUBLIC "-//W3C//DTD SVG 1.1//EN" "http://www.w3.org/Graphics/SVG/1.1/DTD/svg11.dtd" >
<svg xmlns="http://www.w3.org/2000/svg">
<metadata>
<json>
<![CDATA[
{
	"fontFamily": "icomoon",
	"majorVersion": 1,
	"minorVersion": 0,
	"version": "Version 1.0",
	"fontId": "icomoon",
	"psName": "icomoon",
	"subFamily": "Regular",
	"fullName": "icomoon",
	"description": "Font generated by IcoMoon."
}
]]>
</json>
</metadata>
<defs>
<font id="icomoon" horiz-adv-x="1024">
<font-face units-per-em="1024" ascent="960" descent="-64" />
<missing-glyph horiz-adv-x="1024" />
<glyph unicode="&#x20;" horiz-adv-x="512" d="" />
<glyph unicode="&#xe900;" glyph-name="0800" data-tags="0800" horiz-adv-x="1026" d="M966.44 129.929l-228.157 158.297c-22.856 15.812-53.289 10.097-68.338-11.098l-59.242-85.052c-3.619-5.001-5.617-10.856-6.572-17.001-7.951-4.669-83.768-43.098-224.875 100.007-144.939 146.678-159.13 218.516-143.035 262.378 5.428 1.333 10.741 3.5 15.336 7.143l81.84 62.836c20.62 15.812 24.956 47.025 8.739 69.671l-163.512 226.303c-22.811 31.455-47.148 38.811-80.1 10.002-23.262-20.119-63.768-71.456-79.862-100.958-8.308-14.979-10.975-29.716-8.952-43.812-8.808-34.384-64.506-299.31 236.162-594.427 305.213-299.642 557.277-239.403 594-220.018 13.81-1.571 28.095 1.908 42.381 10.573 28.526 17.145 77.721 59.862 96.864 84.195 27.238 34.241 19.287 58.721-12.673 80.962zM721.425 442.121c2.384-0.361 4.714-0.501 7.003-0.501 24.046 0 45.002 17.879 48.576 42.623 10.618 74.48-4.529 134.485-44.957 178.252-67.723 73.339-177.059 66.623-189.395 66.098-26.909-2.191-46.955-25.904-45.002-53.24 1.998-27.336 25.621-47.624 52.334-46.003 20.575 1.715 80.531-2.142 110.723-35.123 18.86-20.575 25.289-52.887 19.237-95.744-3.902-27.221 14.671-52.485 41.482-56.362zM897.868 844.506c-149.251 141.341-371.123 113.816-380.317 112.483-26.909-3.619-45.814-28.431-42.29-55.813 3.426-27.242 28.477-46.483 54.959-42.766 1.998 0.189 184.964 23.049 300.688-86.603 71.907-68.030 103.912-175.274 95.247-318.76-1.666-27.381 18.901-52.625 45.905-52.625 1.046 0 2.096 0 3.098 0 25.761 0 47.337 20.243 48.908 46.528 10.618 174.585-31.857 308.381-126.198 397.556z" />
<glyph unicode="&#xe901;" glyph-name="academia" data-tags="academia" horiz-adv-x="2097" d="M131.978 816.029h-68.748c-34.932 0-63.229-24.767-63.229-55.321v-625.333c0-30.579 28.298-55.354 63.229-55.354h68.748c34.907 0 63.204 24.767 63.204 55.354v625.333c0 30.554-28.298 55.321-63.204 55.321zM1727.064 960h-93.775c-34.84 0-63.045-24.767-63.045-55.329v-302.502h-1093.327v302.502c0 30.562-28.314 55.329-63.221 55.329h-68.765c-34.907 0-63.204-24.767-63.204-55.329v-913.317c0-30.579 28.298-55.354 63.204-55.354h68.765c34.907 0 63.221 24.767 63.221 55.354v302.502h1093.335v-302.502c0-30.579 28.197-55.354 63.045-55.354h93.775c34.84 0 63.037 24.767 63.037 55.354v913.317c-0.008 30.562-28.197 55.329-63.045 55.329zM2033.709 816.029h-93.775c-34.84 0-63.070-24.767-63.070-55.321v-625.333c0-30.579 28.222-55.354 63.070-55.354h93.775c34.865 0 63.045 24.767 63.045 55.354v625.333c-0.008 30.554-28.18 55.321-63.045 55.321z" />
<glyph unicode="&#xe902;" glyph-name="aquecimento_solar" data-tags="aquecimento_solar" horiz-adv-x="1235" d="M344.215 600.872c106.563 18.242 224.027 38.312 354.144 60.559 144.8 24.756 306.967 52.509 490.084 83.819 28.806 4.919 49.795-9.064 46.272-31.31-38.352-242.234-76.698-484.464-115.060-726.683-4.949-31.231-36.458-54.228-69.622-50.943-207.401 20.567-387.183 38.376-544.441 53.965-138.673 13.75-262.076 25.988-372.5 36.93-15.181 1.486-21.064 19.424-13.476 39.753 62.357 166.694 124.715 333.383 187.072 500.067 6.018 16.090 22.833 31.34 37.527 33.845v0zM1182.569 711.276c-184.17-29.432-347.301-55.475-492.712-78.775-130.385-20.88-248.262-39.857-354.993-56.986-2.127-0.328-4.596-2.494-5.451-4.845-62.213-168.503-124.412-337.015-186.506-505.572-1.103-3.016-0.248-5.466 1.958-5.65 110.28-9.004 233.369-19.066 371.665-30.441 156.716-12.9 335.554-27.767 541.698-44.891 4.596-0.393 8.905 2.862 9.72 7.235 40.23 238.503 80.639 476.965 121.117 715.413 0.492 3.086-2.395 5.153-6.495 4.512v0zM1037.958 92.050c13.138 72.678 25.988 145.401 38.998 218.094-17.312 17.442-34.386 34.461-50.909 51.112-73.811-3.334-143.836-6.515-210.511-9.6-20.791-16.801-41.462-33.542-62.054-50.287-16.179-64.539-32.334-129.098-48.379-193.666 12.592-18.704 25.422-37.696 38.6-57.16 69.384-4.726 142.539-9.635 219.784-14.917 24.632 18.674 49.557 37.462 74.472 56.424v0zM679.616 108.821c16.393 63.943 32.702 127.905 49.010 191.862-12 15.369-23.583 30.495-35.142 45.284-57.786-2.758-112.973-5.411-165.849-7.936-17.834-15.046-35.564-30.008-53.299-44.941-17.938-57.498-35.797-115.020-53.845-172.493 8.592-16.378 17.307-33.139 26.152-50.223 54.124-3.558 110.935-7.379 170.639-11.335 20.711 16.542 41.413 33.124 62.333 49.781v0zM1100.306 440.097c11.161 62.432 22.48 124.834 33.696 187.256-16.666 12.805-33.064 25.362-49.050 37.666-70.119-10.376-136.969-20.373-200.742-29.919-19.757-16.458-39.221-32.796-58.73-49-14.276-56.171-28.567-112.332-42.739-168.532 12.527-14.271 25.203-28.811 38.193-43.733 66.402 3.622 136.263 7.379 209.687 11.215 23.101 18.291 46.397 36.593 69.687 55.048v0zM758.232 415.748c14.326 55.729 28.801 111.427 43.261 167.121-11.836 11.767-23.325 23.35-34.794 34.699-55.868-8.403-109.415-16.378-160.711-24.1-17.009-14.719-34.004-29.353-50.854-43.813-16.020-50.789-32.12-101.534-48.066-152.358 8.761-12.875 17.625-26.003 26.634-39.43 52.712 3.016 107.77 6.067 165.506 9.297 19.593 16.14 39.216 32.334 59.023 48.583v0zM398.886 121.596c18.048 56.936 35.986 113.922 54.099 170.843-8.179 13.784-16.363 27.395-24.329 40.707-46.397-2.326-91.064-4.567-133.903-6.698-15.578-13.576-31.141-27.131-46.575-40.568-18.808-51.733-37.641-103.437-56.37-155.195 5.675-14.579 11.479-29.472 17.496-44.588 43.445-2.822 88.808-5.849 136.154-8.944 17.72 14.728 35.559 29.526 53.428 44.444v0zM485.925 395.742c16.11 50.357 32.15 100.734 48.33 151.061-8.428 10.808-16.731 21.536-24.915 32.175-45.443-6.867-89.295-13.486-131.478-19.857-15.002-13.292-29.909-26.555-44.747-39.688-16.865-46.347-33.611-92.748-50.615-139.041 6.127-11.822 12.353-23.757 18.609-36.001 42.824 2.524 87.476 5.133 133.858 7.856 16.835 14.42 33.884 28.945 50.958 43.495v0zM130.375 529.998c-9.864 10.266-18.177 22.023-25.427 34.197-9.168-13.71-17.804-28.841-24.334-44.618-7.001-15.931-12.79-32.95-16.746-50.337 17.77 2.335 35.117 6.534 51.748 12.080 16.179 5.163 32.031 12.259 46.585 20.254-11.563 8.274-22.475 17.68-31.827 28.423zM80.813 625.146c-2.917 13.948-4.388 28.12-4.765 42.406-14.51-7.3-29.343-16.115-43.46-26.396-13.501-10.167-27.241-22.028-39.768-35.196 17.322-6.683 33.835-11.926 50.854-15.469 17.466-3.334 33.676-5.585 50.566-5.724-5.878 12.93-10.117 26.535-13.427 40.379zM36.235 721.070c13.084-11.573 27.082-21.76 40.871-30.302 1.734 14.152 4.467 28.080 8.736 41.721 4.532 13.441 10.033 26.585 17.138 38.908-17.019 1.496-33.149 0.725-50.879-0.979-17.412-1.794-34.237-5.536-52.101-10.594 11.166-14.276 23.822-27.38 36.235-38.754zM83.436 889.314c2.365-17.819 6.41-35.142 11.981-51.788 5.163-16.165 12.135-32.026 20.175-46.695 8.249 11.603 17.68 22.485 28.448 31.822 10.376 9.804 22.038 18.073 34.332 25.288-13.685 9.168-28.92 17.934-44.533 24.463-15.936 6.962-32.985 12.92-50.402 16.91zM220.34 960c-6.674-17.268-12.005-33.884-15.563-50.824-3.404-17.466-5.61-33.735-5.898-50.516 13.004 5.809 26.585 10.053 40.454 13.322 13.948 2.822 28.135 4.303 42.421 4.711-7.22 14.44-16.010 29.238-26.237 43.49-10.197 13.526-21.963 27.166-35.176 39.818zM374.224 952.422c-14.276-11.051-27.459-23.777-38.883-36.24-11.598-12.845-21.78-26.992-30.366-40.682 14.132-1.774 28.090-4.552 41.716-8.9 13.407-4.492 26.555-10.057 38.873-17.238 1.56 17.104 0.815 33.189-0.84 50.899-1.754 17.536-5.546 34.267-10.5 52.161zM436.701 808.184c9.72-10.4 18.018-22.088 25.198-34.406 9.158 13.66 18.008 28.945 24.642 44.553 6.882 15.787 12.984 32.831 16.994 50.273-17.904-2.37-35.156-6.266-51.813-11.881-16.269-5.029-32.016-11.916-46.73-20.001 11.613-8.174 22.326-17.849 31.708-28.538zM485.741 712.767c2.832-13.928 4.244-28.125 4.596-42.372 14.555 7.116 29.208 15.861 43.614 26.093 13.541 10.132 27.092 21.889 39.927 35.017-17.273 6.728-33.954 12.135-50.789 15.787-17.442 3.439-33.835 5.575-50.511 6.003 5.714-13.089 9.918-26.649 13.163-40.528zM193.587 386.077c4.974 3.941 9.6 8.174 14.261 12.373l25.338 70.368c-4.149 0.999-8.353 1.893-12.463 3.15-13.461 4.522-26.699 10.062-39.047 17.114-1.362-16.93-0.616-33.263 1.133-50.889 1.913-17.377 5.719-34.267 10.778-52.116zM291.468 630.637c0 0 68.017 13.302 157.824 30.048 0.184 3.285 0.487 6.554 0.462 9.889-0.368 91.934-75.188 166.098-167.111 165.73-91.879-0.383-166.083-75.148-165.715-167.096 0.313-79.297 56.012-145.173 130.231-161.645l44.31 123.075zM281.749 603.645c0 0 4.234 26.003 44.523 33.73l-56.514 9.64 11.99-43.37z" />
<glyph unicode="&#xe903;" glyph-name="areas_lazer" data-tags="areas_lazer" horiz-adv-x="1225" d="M1083.444 158.885h-81.581l-66.194 156.622h78.137c19.153 0 34.809 15.69 34.809 34.834v5.785c0 19.188-15.656 34.834-34.809 34.834h-197.588l82.639 226.554c28.299-13.594 52.018-31.846 92.059-65.91 0 0 97.344 163.832 6.848 370.209l-1.592 3.071-3.013-1.337c-202.134-99.696-235.327-286.923-235.327-286.923 53.987 0.289 84.094-1.132 115.376-9.498l-86.131-236.169h-365.046c-19.139 0-34.799-15.646-34.799-34.834v-5.785c0-19.144 15.656-34.834 34.799-34.834h78.166l-66.184-156.622h-81.576c-19.163 0-34.819-15.67-34.819-34.809v-5.81c0-19.168 15.656-34.809 34.819-34.809h49.696l-44.435-105.177c-5.281-12.56 4.805-28.882 22.44-36.328l5.33-2.244c17.65-7.451 36.401-3.326 41.731 9.185l56.833 134.563h467.822l56.843-134.563c5.305-12.511 24.062-16.636 41.706-9.185l5.33 2.244c17.654 7.451 27.745 23.768 22.445 36.328l-44.43 105.177h49.706c19.139 0 34.809 15.641 34.809 34.809v5.81c-0.010 19.144-15.68 34.814-34.819 34.814zM515.892 158.885l66.184 156.622h271.718l66.184-156.622h-404.087zM1017.465 942.958c2.214 6.040-0.906 12.8-6.971 15.029l-3.664 1.313c-6.094 2.195-12.82-0.941-15.063-6.951l-7.314-20.192 25.644-9.415 7.367 20.216zM740.902 642.755c0 0 48.432 212.117 254.515 282.495-179.846 65.606-384.581-41.476-449.982-209.325 27.662 8.71 134.583 33.937 195.467-73.17zM997.288 924.637c112.339-186.571 12.932-380.070 12.932-380.070 115.518 42.764 181.129-45.346 196.672-69.863 57.974 170.651-29.764 384.326-209.605 449.933zM243.762 57.881c0-67.313-54.568-121.881-121.881-121.881s-121.881 54.568-121.881 121.881c0 67.313 54.568 121.881 121.881 121.881s121.881-54.568 121.881-121.881z" />
<glyph unicode="&#xe904;" glyph-name="areas_verdes" data-tags="areas_verdes" horiz-adv-x="985" d="M980.599 524.685c-7.782 38.871-25.178 70.197-46.096 93.377-41.898 46.436-109.629 79.405-190.378 61.243-4.874 92.623-38.916 157.299-88.797 204.829-48.23 46.027-113.431 80.74-199.754 75.309-114.188-7.107-191.877-82.62-233.927-178.733-82.948-12.333-141.816-55.501-181.826-120.472-19.694-31.928-36.258-72.167-39.285-120.496-3.084-49.578 7.467-97.554 24.764-136.544 31.293-70.504 92.086-121.995 163.914-141.574 65.266-17.768 131.559-5.247 182.239 22.983 37.294-61.813 68.043-119.337 67.248-198.885-0.111-10.138-2.679-129.655-7.61-149.721l65.737 0.172h71.512c-4.944 20.062-9.765 141.369-9.875 151.503-0.537 52.67 12.673 100.434 39.944 143.614 20.697 32.846 46.088 62.595 68.821 94.142 38.117-31.822 88.609-50.594 150.323-41.73 67.363 9.712 124.056 55.394 151.097 117.481 15.794 36.368 20.058 83.005 11.948 123.503zM608.039 291.942c-33.841-36.979-67.498-73.814-92.549-116.9-16.912 29.020-38.105 55.448-60.572 80.74-15.901 17.908-32.981 34.685-49.664 51.827 3.224 2.679 6.353 5.423 9.335 8.233 21.377-16.433 45.281-29.618 76.837-32.137 67.867-5.313 114.708 32.51 143.426 75.317 5.431-6.951 11.293-13.623 17.535-19.943-14.565-16.118-29.991-31.449-44.347-47.137z" />
<glyph unicode="&#xe905;" glyph-name="balao" data-tags="balao" horiz-adv-x="551" d="M245.744 335.273l-18.355-49.923c-2.689-7.322 6.381-14.177 14.173-14.177h14.75c-5.742-9.574-8.844-19.956-8.868-30.519-0.025-11.285 3.481-22.476 11.050-32.792 5.259-7.157 12.42-13.851 21.651-19.754 6.241-4.665 11.232-9.891 14.721-15.381 3.589-5.643 5.54-11.446 5.548-16.998 0.012-5.399-1.786-10.906-5.663-16.19-3.246-4.414-7.969-8.724-14.334-12.766l-0.763-0.557c-9.392-6.88-16.965-14.833-22.377-23.342-6.365-10.003-9.813-20.929-9.842-32.070-0.025-11.294 3.477-22.484 11.054-32.796 5.259-7.165 12.42-13.851 21.651-19.758 6.241-4.661 11.232-9.891 14.721-15.377 3.589-5.643 5.54-11.455 5.56-17.002 0.008-5.387-1.798-10.902-5.667-16.182-3.246-4.414-7.977-8.732-14.342-12.775l15.076-23.771c9.359 5.948 16.623 12.696 21.932 19.927 7.577 10.312 11.079 21.507 11.059 32.796-0.029 11.145-3.481 22.072-9.842 32.079-5.412 8.514-12.997 16.462-22.377 23.346l-0.775 0.557c-6.36 4.046-11.1 8.357-14.334 12.766-3.877 5.284-5.676 10.795-5.663 16.186 0.008 5.548 1.963 11.347 5.548 16.994 3.481 5.474 8.46 10.696 14.684 15.348 9.244 5.923 16.429 12.618 21.692 19.778 7.569 10.316 11.087 21.498 11.059 32.805-0.021 11.141-3.481 22.064-9.842 32.079-5.403 8.509-12.989 16.454-22.369 23.342l-0.775 0.553c-6.352 4.046-11.1 8.365-14.334 12.779-3.877 5.276-5.676 10.79-5.663 16.173 0.008 5.548 1.963 11.351 5.548 16.994 3.028 4.772 7.185 9.351 12.321 13.525h16.083c7.784 0 16.858 6.872 14.173 14.177l-18.368 49.927c137.83 24.142 245.195 211.066 245.195 352.832 0 151.826-123.126 274.951-274.951 274.951-151.822 0-274.943-123.126-274.943-274.951 0-141.77 107.365-328.685 245.199-352.832zM308.086 900.104c-171.526-10.44-264.606-229.315-173.37-414.114-155.963 182.873-44.296 475.302 173.37 414.114v0zM295.316-67.597l-15.654 24.679 0.458 0.293c6.109 3.877 10.885 8.134 14.185 12.63 3.696 5.041 5.573 10.378 5.564 15.86-0.016 5.329-1.91 11.104-5.469 16.714-3.485 5.482-8.394 10.609-14.589 15.229-8.967 5.742-16.305 12.432-21.762 19.865-7.437 10.122-11.186 21.263-11.166 33.122 0.029 11.162 3.37 22.051 9.924 32.363 5.519 8.679 13.096 16.582 22.513 23.495l0.775 0.553c6.129 3.898 10.898 8.155 14.21 12.643 3.696 5.045 5.568 10.386 5.556 15.872-0.012 5.329-1.906 11.108-5.465 16.705-3.477 5.478-8.382 10.605-14.585 15.241-8.967 5.729-16.301 12.42-21.762 19.865-7.429 10.122-11.182 21.259-11.162 33.11 0.025 10.279 2.871 20.368 8.464 29.983h-13.802c-5.123 0-10.634 2.78-13.414 6.765-1.827 2.619-2.265 5.428-1.27 8.138l18.141 49.32c-63.906 11.438-125.675 58.436-174.009 132.431-44.461 68.059-71.004 150.617-71.004 220.826 0 151.904 123.583 275.496 275.492 275.496s275.492-123.587 275.492-275.496c0-70.208-26.543-152.758-71-220.822-48.334-73.999-110.103-120.993-174.005-132.435l18.145-49.32c0.99-2.693 0.553-5.511-1.27-8.126-2.784-3.993-8.299-6.777-13.414-6.777h-15.897c-5.012-4.096-9.058-8.559-12.053-13.278-3.564-5.61-5.453-11.389-5.461-16.705-0.008-5.49 1.856-10.819 5.552-15.856 3.304-4.504 8.085-8.753 14.193-12.638l0.792-0.569c9.438-6.93 17.015-14.829 22.513-23.491 6.567-10.333 9.904-21.226 9.924-32.371 0.025-11.851-3.729-23-11.17-33.126-5.457-7.433-12.803-14.132-21.828-19.906-6.142-4.595-11.038-9.71-14.519-15.192-3.56-5.601-5.453-11.38-5.465-16.701-0.012-5.486 1.86-10.823 5.556-15.864 3.304-4.496 8.076-8.745 14.193-12.63l0.792-0.569c9.429-6.921 17.007-14.833 22.517-23.499 6.554-10.316 9.895-21.206 9.924-32.367 0.029-11.859-3.729-23.004-11.162-33.122-5.502-7.495-12.931-14.247-22.076-20.063l-0.441-0.272zM281.159-43.248l14.49-22.856c8.823 5.667 15.996 12.226 21.329 19.494 7.293 9.928 10.976 20.855 10.951 32.479-0.029 10.955-3.312 21.651-9.755 31.786-5.441 8.563-12.919 16.371-22.241 23.206l-0.767 0.549c-6.204 3.947-11.079 8.283-14.457 12.886-3.84 5.234-5.779 10.786-5.766 16.507 0.016 5.531 1.968 11.504 5.634 17.287 3.551 5.585 8.53 10.79 14.816 15.493 8.947 5.729 16.194 12.333 21.573 19.659 7.297 9.937 10.98 20.867 10.955 32.487-0.021 10.931-3.304 21.626-9.755 31.79-5.424 8.547-12.911 16.351-22.237 23.202l-0.767 0.544c-6.2 3.939-11.079 8.287-14.457 12.894-3.836 5.226-5.771 10.774-5.762 16.495 0.012 5.606 1.902 11.422 5.63 17.287 3.081 4.863 7.264 9.454 12.436 13.657l0.144 0.115h16.281c4.706 0 9.974 2.656 12.527 6.315 1.118 1.617 2.227 4.162 1.134 7.132l-18.595 50.541 0.635 0.115c63.836 11.178 125.596 58.081 173.931 132.068 44.342 67.89 70.819 150.217 70.819 220.228 0 151.31-123.097 274.411-274.407 274.411s-274.407-123.101-274.407-274.411c0-70.006 26.477-152.337 70.827-220.232 48.326-73.978 110.095-120.882 173.931-132.060l0.639-0.115-18.591-50.541c-1.097-2.978 0.016-5.527 1.138-7.136 2.549-3.655 7.817-6.307 12.527-6.307h15.707l-0.491-0.817c-5.812-9.689-8.773-19.861-8.798-30.243-0.025-11.615 3.663-22.546 10.947-32.475 5.387-7.33 12.622-13.938 21.507-19.618 6.344-4.727 11.335-9.953 14.882-15.542 3.671-5.771 5.622-11.752 5.634-17.287 0.012-5.725-1.93-11.281-5.766-16.516-3.391-4.607-8.262-8.947-14.478-12.898l-0.747-0.54c-9.31-6.827-16.788-14.635-22.233-23.19-6.443-10.143-9.726-20.834-9.759-31.786-0.025-11.624 3.663-22.55 10.955-32.479 5.383-7.33 12.622-13.934 21.507-19.618 6.332-4.727 11.331-9.949 14.886-15.551 3.679-5.771 5.622-11.752 5.639-17.283 0.008-5.725-1.935-11.273-5.775-16.512-3.275-4.496-7.998-8.745-14.004-12.618zM137.133 482.323l-2.83 3.312c-38.41 45.043-62.751 99.441-70.382 157.32-7.008 53.144 0.672 107.418 21.622 152.812 15.608 33.836 38.249 62.008 65.469 81.481 29.365 21.008 62.936 31.662 99.771 31.662 18.553 0 37.886-2.788 57.446-8.291l3.089-0.866-3.197-0.194c-69.408-4.224-131.082-44.342-169.216-110.066-51.131-88.135-52.546-204.335-3.704-303.264l1.93-3.906zM250.788 907.829c-71.396 0-131.264-41.009-164.258-112.512-37.14-80.496-37.099-205.696 45.794-305.64-47.043 98.389-44.985 213.083 5.651 300.356 18.648 32.149 42.49 58.094 70.864 77.122 28.977 19.436 61.27 30.623 96.026 33.262-18.426 4.925-36.599 7.412-54.076 7.412z" />
<glyph unicode="&#xe906;" glyph-name="balao_passos" data-tags="balao_passos" d="M929.296 146.985l-8.95-7.774c65.020 85.856 103.649 192.803 103.649 308.806 0 282.755-229.237 511.984-511.996 511.984-282.776 0-511.996-229.229-511.996-511.988 0-282.771 229.22-512.012 511.996-512.012 118.174 0 226.902 40.149 313.553 107.389l134.312-27.984-30.568 131.58z" />
<glyph unicode="&#xe907;" glyph-name="banco" data-tags="banco" horiz-adv-x="567" d="M284.897 960c-22.655 0-33.98-13.926-33.98-41.746v-52.72c-74.449-5.947-131.371-27.144-170.766-63.619-39.399-36.442-59.064-83.177-59.064-140.169 0-43.745 10.047-79.577 30.208-107.36 20.091-27.787 46.379-49.299 78.721-64.401 32.416-15.106 72.667-28.713 120.898-40.968v-231.178c-24.080 6.271-43.459 15.389-57.991 27.357-14.602 11.973-25.506 25.080-32.629 39.543-7.266 14.459-15.671 35.193-25.362 62.337-4.346 12.681-12.112 22.368-23.224 29.352-11.182 6.98-24.793 10.4-41.038 10.4-20.087 0-36.901-6.341-50.438-19.091-13.464-12.759-20.23-27.079-20.23-43.041 0-21.516 5.059-43.454 15.106-65.827 10.117-22.368 25.649-43.885 46.735-64.614 21.017-20.734 47.231-37.974 78.721-51.937s68.252-23.081 110.354-27.357v-134.222c0-15.249 2.564-26.505 7.836-33.767 5.202-7.266 14.25-10.973 27.218-10.973 14.037 0 23.085 4.559 27.214 13.394 4.137 8.974 6.201 23.228 6.201 42.815v123.748c51.438 3.994 95.891 16.388 133.296 37.331 37.401 20.804 65.753 47.731 84.992 80.79 19.231 32.915 28.852 68.252 28.852 106.009 0 30.208-6.058 57.991-18.096 83.358-12.038 25.358-29.213 47.092-51.507 65.327-20.877 17.596-44.528 30.99-70.959 40.251-26.427 9.261-61.981 19.522-106.578 30.777v206.852c45.38-13.607 73.949-41.107 85.774-82.534 10.473-35.123 33.268-52.683 68.534-52.683 18.735 0 34.623 6.058 47.731 18.129 13.181 12.112 19.73 26.431 19.73 42.996 0 14.926-4.415 31.314-13.246 49.23-8.765 17.883-21.303 35.262-37.474 52.183-20.517 22.192-44.524 38.756-72.028 49.693-27.496 10.936-60.482 18.239-99.025 21.873v53.715c0 27.144-11.473 40.751-34.484 40.751v0zM178.602 614.797c-15.815 13.394-23.724 33.198-23.724 59.38 0 27.501 8.409 48.050 25.362 61.624 16.884 13.607 40.464 24.543 70.672 32.809v-190.362c-32.412 10.899-56.492 23.155-72.311 36.549zM404.374 390.595c19.235-15.745 28.852-37.974 28.852-66.896 0-26.788-9.9-50.295-29.635-70.529-19.804-20.234-47.874-33.628-84.21-40.325v217.715c37.396-10.895 65.753-24.22 84.992-39.965z" />
<glyph unicode="&#xe908;" glyph-name="bar" data-tags="bar" horiz-adv-x="529" d="M310.141 265.654c51.061 26.923 144.052 86.548 193.171 183.21 53.522 105.419 11.383 328.79-18.498 452.571-8.348 34.476-39.35 58.565-75.391 58.565h-289.866c-36.041 0-67.043-24.089-75.391-58.581-29.876-123.765-72.020-347.136-18.493-452.571 49.123-96.662 142.143-156.266 193.188-183.194 4.207-2.216 8.614-4.010 13.095-5.591v-191.382c-42.856-26.059-58.806-100.639-209.92-104.829-7.549-0.197-13.537-6.443-13.537-14.029 0-7.631 6.197-13.828 13.828-13.828h484.34c7.631 0 13.828 6.197 13.828 13.828 0 7.586-5.984 13.832-13.537 14.029-151.126 4.186-167.080 78.766-209.92 104.829v191.382c4.489 1.581 8.892 3.375 13.103 5.591zM111.976 885.031c0.717 3.035 3.916 5.235 7.586 5.235h289.866c3.67 0 6.869-2.204 7.586-5.218 9.052-37.491 17.416-77.267 24.269-116.978-2.314 1.11-4.714 2.068-7.209 2.834-95.441 29.52-194.609 33.546-291.107 12.46-25.211-123.060-25.862-216.265-1.094-258.847 8.577-14.742 19.603-29.385 32.793-43.524 9.851-10.568 9.282-27.12-1.286-36.97-5.034-4.694-11.448-7.029-17.838-7.029-6.996 0-13.976 2.789-19.128 8.315-15.852 16.994-29.225 34.787-39.76 52.908-20.615 35.455-26.747 86.807-24.834 142.828 1.384 41.034 7.045 84.525 14.692 126.243 3.944 21.545 8.397 42.533 13.029 62.493 3.924 18.768 8.098 37.278 12.435 55.251z" />
<glyph unicode="&#xe909;" glyph-name="bares" data-tags="bares" horiz-adv-x="761" d="M738.865 561.246l-4.874 19.988c-12.665 52.261-24.781 100.68-24.781 100.68l-4.329 17.224h-100.803l25.309 108.319 100.127 98.82-52.957 53.723-113.746-113.816-34.869-147.050h-298.602l-4.338-17.183c0 0-12.21-48.439-24.789-100.782-2.056-8.528-4.084-16.855-6.046-24.908-11.842-48.407-21.168-86.622-21.225-115.696-0.188-63.689 26.354-120.234 72.831-155.124 19.079-14.352 51.941-31.048 97.62-49.619 34.628-14.143 69.083-33.264 86.032-43.082l0.020-134.427c0-0.086-0.655-7.979-8.929-15.446-10.195-5.513-57.815-18.723-86.475-26.661-24.367-6.775-45.412-12.62-55.509-16.421-17.371-6.525-26.903-16.634-28.348-29.991-1.475-13.93 7.029-24.715 15.495-30.163l5.624-3.629h391.647l5.612 3.629c8.462 5.448 16.974 16.253 15.471 30.163-1.438 13.361-10.957 23.466-28.324 29.991-10.113 3.801-31.134 9.642-55.513 16.4-28.684 7.954-76.3 21.168-86.536 26.681-8.425 7.66-8.888 15.806-8.888 16.040v133.837c16.949 9.814 51.417 28.918 85.987 43.057 45.552 18.53 78.393 35.209 97.665 49.644 46.432 34.849 73.007 91.39 72.88 155.124-0.106 29.745-10.932 73.925-22.438 120.676zM555.323-18.493h-176.435c44.896 12.833 62.181 19.079 70.349 26.026 8.405 7.156 14.062 14.881 17.879 22.102 3.801-7.242 9.458-14.942 17.854-22.118 8.192-6.951 25.461-13.177 70.353-26.010zM661.131 321.876c-15.872-11.903-46.162-27.103-87.527-43.926-51.859-21.193-101.421-51.565-103.49-52.851l-3.019-1.855-2.994 1.855c-2.089 1.27-51.606 31.658-103.53 52.871-52.429 21.32-76.513 35.627-87.495 43.86-47.755 35.86-54.731 89.702-54.645 118.641 0.041 23.63 9.257 61.338 19.915 104.976 1.982 8.114 4.030 16.495 6.099 25.084 7.938 33.030 15.725 64.483 20.369 83.1h404.554c4.645-18.629 12.407-50.106 20.431-83.128l4.895-20.083c10.338-42.107 21.045-85.672 21.103-109.945 0.061-28.942-6.967-82.825-54.665-118.6zM199.516 722.543c0 0 1.425 6.795 4.907 9.712 3.494 2.892 12.771 2.679 12.771 2.679h176.157c0.188 4.497 0.381 8.95 0.233 13.509-3.609 108.675-94.593 193.851-203.325 190.231-108.626-3.588-193.757-94.618-190.149-203.321 3.080-92.615 69.587-167.862 156.303-185.983 2.9 12.304 5.943 25.465 8.581 38.277 11.354 55.214 25.731 104.636 25.879 105.132l8.643 29.766zM654.373 561.848c-1.18 4.907-2.363 9.761-3.543 14.574-30.798 3.211-74.019-2.15-107.114-17.412-30.269-13.939-99.77-38.371-176.677-30.306-42.902 4.465-72.069 11.133-91.234 17.011l-2.134-8.761c-9.728-39.784-18.878-77.251-18.911-96.543-0.061-22.159 5.067-63.148 40.104-89.428 6.087-4.579 26.026-17.58 79.36-39.301 37.044-15.131 72.864-34.636 92.811-46.076 19.755 11.354 55.341 30.753 92.742 46.055 53.252 21.656 73.322 34.738 79.487 39.342 34.996 26.255 40.145 67.289 40.104 89.395-0.086 19.89-10.678 63.16-20.054 101.323l-4.94 20.128z" />
<glyph unicode="&#xe90a;" glyph-name="beach_club" data-tags="beach_club" horiz-adv-x="985" d="M399.36 404.992c-27.853-50.79-65.946-40.55-54.477-25.395 13.517 18.022 31.949 83.149 20.070 133.12s-78.234 151.962-131.072 149.504c-52.838-2.867-152.781-124.109-160.973-168.346-8.192-44.646 27.443-80.282 50.381-113.869 24.576-36.454-1.229-56.934-25.395-27.853-7.373 9.011-16.794 18.842-26.624 29.901 6.554-40.141 9.011-80.691 13.926-143.77 9.421-129.434 89.702-218.726 196.608-205.21 174.899 21.709 147.866 190.054 138.445 237.978-7.373 38.502-16.794 74.547-20.89 133.939zM208.486 747.418c6.554 30.31 22.118 72.909 47.923 70.042 25.805-2.458 29.082-51.61 28.672-79.872 35.226-22.938 74.547-66.765 98.714-104.448 15.974-24.986 28.672-51.61 35.226-81.101 20.48 63.488 45.875 137.626 29.901 237.158-14.746 91.341-131.482 223.642-289.997 143.36-176.128-89.293-171.213-274.022-127.795-401.408 0-0.41 0.41-0.819 0.41-1.229 2.867 32.768 14.746 67.174 60.621 121.242 51.2 59.802 86.016 86.016 116.326 96.256zM883.507 372.224c-2.048 45.466-84.378 178.995-136.397 188.826s-131.482-82.33-150.323-129.843c-18.432-47.514-9.421-114.688 1.638-134.349 9.421-16.794-29.901-21.709-50.381 32.358-12.288-58.163-26.214-92.57-39.322-130.253-15.974-46.285-65.946-209.306 104.448-254.771 104.038-27.853 195.789 49.562 222.822 176.538 13.107 61.44 21.299 101.581 33.178 140.493-11.059-9.421-21.709-18.022-30.31-25.805-27.853-25.395-50.381-1.638-21.299 31.13 27.853 29.901 67.994 60.211 65.946 105.677zM858.522 819.098c-145.818 101.171-279.757-13.926-306.79-102.4-29.491-96.256-14.336-173.261-2.867-238.797 10.65 28.262 26.624 52.838 45.875 75.366 29.082 33.997 74.138 72.090 112.23 90.112 3.686 27.853 13.517 76.186 39.322 74.957 25.805-0.819 35.635-45.056 38.093-76.186 28.672-14.336 59.802-45.056 101.99-111.002 38.502-59.802 45.056-95.437 43.418-128.614 0.41 0.41 0.41 0.819 0.41 1.229 60.621 120.422 90.931 302.694-71.68 415.334z" />
<glyph unicode="&#xe90b;" glyph-name="bicicletario" data-tags="bicicletario" horiz-adv-x="1382" d="M1004.555 339.166c-29.168 0-56.7-6.71-81.407-18.351l-38.587 58.585c-0.055 0-0.238 0.116-0.293 0.238l40.996 81.672c3.532 7.058 3.178 15.41-1 22.115-4.118 6.705-11.408 10.823-19.291 10.823h-102.063c-12.525 0-22.701-10.237-22.701-22.762s10.181-22.706 22.701-22.706h65.24l-20.998-41.759h-235.112c-1.117 1.409-2.233 2.819-3.587 3.88l24.177 51.056c3.35 7.058 2.824 15.294-1.293 21.883-4.173 6.589-11.408 10.59-19.23 10.59h-122.354c-12.536 0-22.706-10.176-22.706-22.767 0-12.531 10.176-22.701 22.706-22.701h86.465l-57.7-121.796c-19.351 6.705-39.941 10.474-61.525 10.474-19.766 0-38.819-3.173-56.711-8.822-22.524-8.357-49.757-24.475-49.757-24.475-38.885-26.824-66.118-68.346-76.648-116.141l-54.997 23.436c-6.821 2.941-14.526 2.233-20.645-1.879-6.113-4.007-9.822-10.828-9.822-18.24v-217.054c0-12.116 9.772-21.883 21.883-21.883h508.927c0.238-0.116 0.409-0.116 0.531 0 12.11 0 21.883 9.767 21.883 21.883 0 10.115-6.887 18.705-16.295 21.175l-110.227 46.999c20.23 30.030 32.12 66.024 32.12 104.76 0 67.058-35.121 126.112-87.824 159.995l26.526 55.882c0.177 0 0.409 0 0.591-0.116l136.051-218.115c4.173-6.705 11.469-10.707 19.296-10.707h73.348c8.175-97.409 89.936-174.228 189.345-174.228 104.119 0 188.881 85.409 188.881 190.23-0.072 104.125-84.834 188.826-188.892 188.826zM315.165 113.174c-0.647 3.737-0.818 6.882-1.293 10.32l226.644-96.613c-23.828-16.239-52.532-25.824-83.524-25.824-68.827 0-126.356 47.884-141.827 112.117zM232.172 158.344l36.586-15.582c0.177-10.474 0.818-22.53 2.88-31.003 9.059-47.171 36.116-87.703 73.293-115.406h-112.758v161.991zM569.988-3.647c4.997 3.703 9.761 7.644 14.404 11.823l27.709-11.823h-42.113zM604.683 147.405c0-32.938-11.408-63.023-29.997-87.498l-260.82 111.205c6.649 40.996 28.941 76.67 61.708 98.879 0 0 15.405 12.586 48.171 20.827 10.712 2.592 21.767 4.234 33.242 4.234 15.057 0 29.29-2.935 42.937-7.175l-60.525-127.643c-5.411-11.292-0.531-24.939 10.767-30.235 3.173-1.531 6.467-2.239 9.761-2.239 8.473 0 16.648 4.825 20.468 12.945l60.591 127.876c38.41-26.703 63.697-71.065 63.697-121.176zM908.439 260.578l53.3-80.816h-101.88c6.638 32.236 24.348 60.11 48.58 80.816zM641.097 361.513h183.348l-81.589-163.173-101.759 163.173zM784.389 179.762l76.41 152.937 23.762-35.878c-35.585-28.825-60.226-70.12-67.699-117.059h-32.473zM1004.555 2.826c-75.935 0-137.935 57.761-146.055 131.524h145.469c8.352 0 16.051 4.588 19.998 12 3.941 7.296 3.526 16.239-1.061 23.298l-76.112 115.284c17.759 7.528 37.288 11.768 57.755 11.768 80.65 0 146.359-65.649 146.359-146.354 0-81.291-65.704-147.52-146.354-147.52zM1366.608 791.15l-670.746 167.38c-0.768 0.614-1.531 0.381-2.355 0.702-0.824 0.381-1.653 0.768-2.471 0.768-0.884 0-1.647-0.381-2.526-0.768-0.768-0.326-1.592-0.088-2.299-0.702l-670.796-167.38c-5.185-2.648-15.416-11.823-15.416-22.734 0-13.028 11.884-23.497 18.472-23.497 0.061-0.088 0.061-0.088 0.293 0h45.236v-786.329c0-12.47 10.121-22.59 22.59-22.59 12.475 0 22.59 10.121 22.59 22.59v786.329h581.739c0 0 0.061 0.028 0.116 0.028l0.061-0.028h583.22v-786.329c0-12.47 10.115-22.59 22.585-22.59s22.59 10.121 22.59 22.59v786.329h43.76c0.238-0.088 0.238-0.088 0.354 0 6.533 0 18.235 10.474 18.235 23.497 0 10.911-10.065 20.086-15.233 22.734z" />
<glyph unicode="&#xe90c;" glyph-name="blog_icon" data-tags="blog_icon" horiz-adv-x="3839" d="M0-46.725h457.777c54.703 0 104.607 5.758 149.713 17.275s83.494 28.791 116.124 51.824c31.67 23.033 56.622 50.864 73.897 84.454s25.912 72.937 25.912 117.083v2.879c0 33.59-4.799 63.34-14.396 89.252s-23.033 47.985-40.307 66.219c-17.275 19.194-38.388 35.509-62.381 48.945s-50.864 25.912-79.655 36.469c18.234 9.597 35.509 21.113 52.784 33.59 17.275 13.436 32.63 28.791 45.106 46.066s23.033 37.428 30.71 60.461c7.678 23.033 12.476 49.904 12.476 79.655v3.839c0 65.26-22.073 119.963-66.219 164.109-58.542 58.542-144.915 87.333-259.119 87.333h-442.422v-989.451zM595.014 660.574c0-45.106-17.275-78.695-50.864-100.769s-79.655-33.59-135.318-33.59h-238.006v262.958h250.482c56.622 0 99.809-11.516 129.56-33.59s44.146-52.784 44.146-93.091v-1.919zM650.677 243.104c0-45.106-17.275-79.655-50.864-101.728s-80.615-33.59-140.116-33.59h-288.87v270.635h275.434c69.098 0 119.963-11.516 153.552-34.549s49.904-55.663 49.904-97.889v-2.879zM992.33-46.725h693.863v158.351h-520.157v831.1h-173.706v-989.451zM2464.51-22.733c63.34 26.872 118.043 64.3 164.109 111.325s81.575 100.769 107.486 162.189c25.912 61.421 38.388 127.64 38.388 197.698v2.879c0 70.058-12.476 135.318-38.388 197.698-25.912 61.421-60.461 116.124-105.567 162.189s-99.809 82.534-162.189 109.406c-64.3 25.912-134.358 39.348-210.174 39.348-76.776 0-145.874-13.436-209.215-41.267s-118.043-64.3-164.109-111.325c-46.066-47.025-81.575-100.769-107.486-162.189s-38.388-127.64-38.388-197.698v-2.879c0-70.058 12.476-135.318 38.388-197.698 25.912-61.421 60.461-116.124 105.567-162.189s99.809-82.534 162.189-109.406c63.34-26.872 132.439-40.307 209.215-40.307 76.776 0.96 146.834 15.355 210.174 42.227zM2121.897 125.061c-41.267 18.234-76.776 44.146-106.527 75.816s-52.784 69.098-69.098 112.285c-16.315 42.227-24.952 88.292-24.952 136.277v1.919c0 47.985 8.637 93.091 24.952 136.277 16.315 42.227 39.348 79.655 68.139 111.325s64.3 56.622 105.567 74.857c41.267 18.234 86.373 27.831 135.318 27.831s94.051-9.597 135.318-28.791c41.267-19.194 76.776-44.146 106.527-75.816s52.784-69.098 69.098-112.285c16.315-43.187 24.952-88.292 24.952-136.277v-2.879c0-47.985-8.637-93.091-24.952-136.277-16.315-42.227-39.348-79.655-68.139-110.366s-64.3-55.663-105.567-74.857c-41.267-18.234-86.373-27.831-135.318-27.831-47.985 0.96-93.091 10.557-135.318 28.791zM3549.931-51.524c39.348 7.678 76.776 19.194 111.325 33.59s66.219 30.71 95.97 49.904c29.751 19.194 56.622 38.388 81.575 59.501v414.59h-421.308v-151.633h253.361v-185.222c-29.751-23.033-66.219-41.267-106.527-54.703-41.267-13.436-85.413-20.154-132.439-20.154-50.864 0-96.93 8.637-138.197 26.872s-76.776 42.227-105.567 73.897c-29.751 30.71-52.784 68.139-68.139 112.285-16.315 43.187-23.993 90.212-23.993 142.036v1.919c0 47.025 8.637 92.131 24.952 134.358s39.348 79.655 68.139 111.325c28.791 31.67 62.381 56.622 101.728 75.816s81.575 28.791 126.68 28.791c30.71 0 59.501-2.879 85.413-7.678s49.904-12.476 71.018-21.113c22.073-8.637 42.227-20.154 62.381-33.59s39.348-27.831 57.582-44.146l110.366 131.479c-25.912 21.113-51.824 40.307-78.695 56.622s-55.663 29.751-85.413 41.267c-29.751 11.516-63.34 20.154-97.889 25.912-35.509 5.758-74.857 9.597-118.043 9.597-74.857 0-142.995-13.436-205.376-41.267s-117.083-64.3-162.189-111.325-80.615-100.769-105.567-163.149c-24.952-62.381-37.428-127.64-37.428-196.739v-2.879c0-72.937 12.476-140.116 36.469-201.537 24.952-61.421 59.501-115.164 103.648-161.23 45.106-46.066 98.849-81.575 162.189-107.486s133.398-39.348 211.134-39.348c42.227 0.96 83.494 5.758 122.842 13.436z" />
<glyph unicode="&#xe90d;" glyph-name="brasil" data-tags="brasil" horiz-adv-x="1026" d="M1026.462 624.41v4.103c0.41 6.154-0.821 10.256-3.692 12.308 0 0.41-0.41 0.821-0.41 1.231-0.41 1.641-1.231 2.872-2.462 3.692l-1.231 0.821c0.41 1.231 0.821 2.462 0.821 3.692l-0.821 11.487c0 0.821 0 2.051-0.41 2.872l-2.051 5.744v1.641c0 1.641-0.41 3.282-1.641 4.513l-3.282 4.103c-0.821 0.821-1.231 1.641-2.462 2.051l-4.923 2.872c-0.821 0.41-1.641 0.821-2.462 0.821l-7.385 0.821h-15.59l-5.744 0.41-10.667 4.513c0 0 0 0-0.41 0-0.41 1.641-0.41 2.872-1.641 4.103l-12.308 11.077-9.026 6.974-2.051 3.282c-0.41 0.821-1.231 1.641-2.051 2.051-6.154 4.103-8.615 4.103-8.205 3.692-0.41 0-2.462 1.231-3.282 1.641l-6.564 4.923-21.333 12.308c-1.231 0.41-2.462 0.821-3.692 0.821h-21.333l-9.436 0.41c-2.051 0.41-3.692-0.821-5.333-2.051 0 0-0.41 0.41-0.41 0.41l-5.744 2.051c-0.821 0.41-1.641 0.41-2.462 0.41h-3.692c-0.41 0-0.821-0.41-1.231-0.41s-0.41 0.41-0.821 0.41l-11.897 2.051-9.026 5.333-6.564 2.872-5.744 1.231c-1.641 0.41-3.282 0-4.513-0.41l-5.333-2.462c-2.051 0-5.744 0-6.974 0-4.513 0-7.795-3.282-9.436-5.333h-0.41c-0.41 0-0.821 0-0.821 0 0.41 2.051 0.41 4.513 0.41 6.154 0 1.231-0.41 2.462-0.821 4.923 0 2.462-0.821 4.513-4.923 9.436-0.41 0.41-0.821 1.231-1.641 1.641l-5.744 4.103-2.462 3.692c-0.821 1.231-2.051 2.051-3.282 2.462l-4.923 2.051c-0.821 0.41-1.641 0.41-2.462 0.41h-5.744l-4.513 2.462c-1.231 1.231-2.872 1.641-4.103 1.641l-5.744 1.231c-0.41 0-0.821-0.41-1.231-0.41-0.41 0.821-1.231 1.641-2.051 2.051l-4.103 2.462c-1.231 0.821-2.462 1.231-4.103 1.231h-2.872c-1.231 2.051-3.282 3.282-5.333 3.692 0 0-5.333 0.821-6.564 0.821-0.41 0.41-2.051 0.821-7.795 1.231l-11.897 1.641c-0.821 0-1.641 0.41-2.462 0l-4.103-0.41c-1.641 0-3.282-0.821-4.513-2.051l-5.333-5.333c0 0.41 0.41 0.41 0.41 0.821l2.051 8.615c0.821 2.051 0.41 4.513-1.231 6.564-1.231 2.051-3.282 3.282-5.744 3.282l-12.718 1.231h-2.462c0.41 1.231 0.41 2.872-0.41 4.513l-2.051 4.103c-1.231 2.872-4.103 4.103-6.974 4.103 0 0.821 0.41 1.641 0 2.051-0.821 2.051-2.872 3.282-4.923 3.692l-7.385 1.641c-2.462 0.41-4.513 0-6.564-1.641 2.462 2.462 6.154 5.744 6.974 6.564 2.462 1.231 4.513 3.282 4.513 6.154l0.821 5.333c0.41 1.641 0 3.282-0.821 4.923l-4.103 6.154-2.872 2.872c-1.231 1.231-2.462 2.051-4.103 2.051l-3.692 0.821-6.154 5.744-0.821 1.231c0 0-1.231 4.513-1.231 6.564 0 1.231 0 2.872-0.41 5.333l-0.41 2.051c0 2.872-1.231 5.333-2.872 7.385l-2.462 4.513c0 2.872-0.41 9.436-0.41 10.667 0 0.821-0.41 6.564-0.41 6.564 0 1.641-0.821 2.872-1.641 4.103l-4.103 4.923-4.103 3.282c-2.872 2.051-6.974 2.051-9.846-0.41l-4.923-5.333-6.564-8.205-13.128-21.333c0 0-3.692-9.436-4.513-10.256l-2.462-3.692-2.872-2.051h-2.872l-2.872 0.41-2.872 1.641c-1.231 0.41-2.051 0.821-3.282 0.821l-11.077-0.41c-2.051 0-4.103-1.231-5.333-2.462v0l-9.026 2.872c-1.231 0.41-2.872 0.41-4.103 0 0 0.41 0 0.41-0.41 0.821l-2.872 3.282c-1.641 1.641-3.692 2.872-5.744 2.872h-5.744c-0.821 0-1.641 0-8.205-2.051-0.821-0.41-1.641-0.821-2.462-1.231l-2.462-0.821-3.282 0.821c-4.103 0.821-8.205-1.641-9.026-5.744l-0.821-2.872c0-0.821-0.41-1.231 0-2.051v-3.692h-2.462l-11.897 0.821-4.513-0.41c0 0-4.513 0.41-6.974 0.41-0.41 0-2.051 0-2.872-0.41-1.231-0.41-2.462-0.41-9.026-4.923l-22.154-8.615c-0.821-0.41-1.231-0.41-2.051-1.231l-4.103-2.872-1.231-0.41c0 0 0 0.41 0 0.41l-2.051 2.872c-0.41 0.821-1.231 1.231-2.051 1.641l-6.154 4.103-3.282 4.103-6.564 5.744v2.872c0 1.231-0.41 2.051-0.821 3.282l-2.872 5.744-1.231 1.641v9.026l0.821 0.821c0.41 1.231 0.821 2.462 0.821 3.692v2.462l2.462 9.026 1.641 2.051c0.821 0.821 1.641 2.051 2.051 3.282l1.231 4.103c0.41 1.641 0.41 3.692-0.41 5.333l-5.333 10.256c-0.821 1.231-2.051 2.462-3.692 2.872l-3.692 1.641 1.641 2.462c1.231 2.051 1.231 4.923 0.41 7.385l-2.462 4.513c-1.231 2.462-3.692 4.103-6.564 4.103l-10.256 0.41c-4.103 0.41-7.385-2.462-7.795-6.564l-0.41-2.462-6.154-7.795-3.282-0.41c-0.821 0-1.641-0.41-2.462-0.821l-15.179-8.205-9.436-0.41c-0.821 0-1.231 0-2.051-0.41l-7.385-2.462-4.103-2.462c-2.051-1.231-3.692-3.282-3.692-5.744l-0.41-2.051-1.641 1.231c-1.231 2.462-3.282 3.692-6.154 4.103l-12.718 1.231-5.744 5.744c-1.231 1.641-3.282 2.462-5.333 2.462h-9.846c-2.462 0-5.333-2.051-6.974-4.103-2.051-2.872-2.051-6.564 0-9.026l1.231-1.641c0.821-1.231 2.051-2.051 3.692-2.462l3.692-1.231 3.692-1.641v-0.821c-3.282-4.103-4.513-6.154-4.513-8.615 0-0.821 0.821-19.692 0.821-19.692 0-4.103 3.692-7.385 7.795-7.385v0c0.821-0.41 1.231-0.821 2.051-0.821l4.923-0.821c0.41 0 1.231 0 1.641 0-0.821-0.41-1.641-0.821-2.051-1.231l-4.923-3.282c-2.051-0.821-3.692-2.872-4.513-5.333l-0.821-2.872-4.513-4.923-8.615-2.462c-0.821-0.41-1.231-0.821-2.051-1.231l-8.615-6.564-4.103-4.513-1.641-0.41c-1.231 2.051-3.692 3.692-6.564 3.692l-7.795-0.41c-2.051-0.41-3.692-1.641-4.513-2.872h-4.103c-0.41 0.821-1.231 1.641-1.231 1.641-0.41 0.41-3.692 3.282-4.103 3.282l-2.462 2.051c-1.231 0.821-2.462 1.231-4.103 1.641l-3.282 0.41v7.795c0 1.231-0.41 2.872-1.231 4.103l-2.872 4.513-4.513 5.333c-2.872 2.872-6.974 2.872-9.846 0.41l-6.154-4.513c-0.41 0-0.41-0.41-0.821-0.41-1.231 1.641-3.282 2.872-5.744 3.282-2.872 0.41-5.333-1.231-6.974-3.282l-2.051-2.872h-27.897c-0.821 0-1.231 0-2.051-0.41 0 0-3.282-0.821-2.462-0.821-0.821-0.41-1.231-0.41-5.333-2.462-1.641-0.821-2.462-2.051-3.282-3.692-1.231-2.872-2.462-5.333-1.641-6.974l0.821-8.205c0-1.231 0.41-2.051 1.231-3.282s3.282-4.513 7.795-4.923c0 0 0.41 0 0.821 0-0.41 0-0.821 0-0.821-0.41l-5.744-1.231c-4.103-0.41-7.385-3.692-7.385-7.795v-17.641c0-2.051 0.821-4.103 2.462-5.744l2.462-2.051c0.41-0.41 0.821-0.821 1.641-1.231 0 0 1.641-0.821 1.231-0.41 0.821-0.821 1.641-1.231 3.282-2.462 0 0 0 0 0 0v-0.821l-0.41-3.282c-0.41-2.051 0.41-4.103 1.641-5.744l2.462-3.282 0.41-1.641-1.231-16v-6.564c-1.641-5.333-2.051-6.974-2.051-6.974s0 0 0 0c-0.41-1.641-2.051-5.744-2.051-5.744-0.41-0.821-0.41-1.641-0.41-2.872v-5.744c-1.231-2.051-1.641-3.282-1.641-4.513 0-0.821-0.41-6.974-0.41-9.846-0.41-1.641-1.641-4.923-1.641-5.333 0-0.821 0-4.513 0-6.564-0.41-1.641-1.641-4.923-2.051-6.154v0c-0.821 0-2.462 0.821-1.641 0-0.41 0.41-3.282 2.462-3.282 2.462-1.231 0.821-2.872 1.231-4.103 1.231h-5.333c-0.821 0-1.641 0-2.872-0.41l-4.103-1.641c-1.641-0.821-3.282-2.051-4.103-3.282l-18.462-1.641c-0.821 0-2.051-0.41-2.872-0.41l-5.333-2.462-9.436-6.154c-4.513-3.282-7.385-4.923-8.205-7.385-0.821-1.231-3.282-4.103-4.513-5.744-0.821-0.821-1.231-1.641-3.282-9.026l-2.051-4.513c-2.462-3.692-2.872-4.513-3.282-5.744-0.41-1.641-0.41-2.462 0.821-9.026l-0.41-0.821-0.821-2.051-2.051-2.051c-3.692-2.051-6.564-3.692-7.385-6.974-0.821-1.231-2.051-3.692-2.051-3.692-1.231-2.051-1.231-4.103-0.821-6.154-2.872-1.231-4.923-3.692-4.923-6.564v-5.744c0-1.231 0.41-2.462 0.821-3.282l9.846-19.692c0.41-0.821 0.821-1.231 1.231-1.641l9.846-10.667-0.821-6.564c-0.821-2.462 0-4.923 1.231-6.564 1.641-2.051 3.692-2.872 6.154-2.872h4.513l7.385-4.513 0.821-4.513c0.41-3.282 3.282-5.744 6.564-6.154l16.41-2.051c1.231 0 2.462 0 3.282 0.41l6.564 2.462c0.821 0.41 1.641 0.821 2.051 1.231l4.923 4.103-1.231-5.744c0-0.821-0.41-1.231 0-2.051l0.821-13.538 1.641-6.154c0.821-2.872 3.692-5.333 6.564-5.333l34.462-0.41 5.333-2.462c0.821-0.41 1.641-0.41 2.051-0.821l4.923-0.41c0.41 0 0.41 0 0.821 0 1.231 0 2.462 0.41 3.282 0.821l3.692 2.051c1.231 0.41 2.051 1.231 2.872 2.462l3.692 4.923 10.256 2.051c1.641 0.41 3.282 1.231 4.513 2.462l3.282 3.692 14.769 8.205c2.051 1.231 3.282 3.282 3.692 5.333l0.41 1.641c2.051-1.641 4.513-2.872 6.974-2.051l5.333 1.641c0 0 6.154 1.641 7.385 2.051 1.231 0 8.615 0 10.256 0v-5.333l-0.41-0.41c-2.051-1.641-2.872-4.513-2.462-6.974l2.462-10.256-0.41-9.026c0-0.821 0-2.051 0.41-2.872l2.462-7.385c0.41-0.821 0.41-1.231 1.231-2.051l4.103-5.744 9.846-9.026 4.513-5.333c0.821-0.821 1.641-1.641 2.462-2.051l5.333-2.462c1.231-0.41 2.462-0.821 4.103-0.821l6.564 0.821h2.462l2.872-2.462c1.231-1.231 3.282-2.051 4.923-2.051h4.103c0.821 0 1.641 0 2.462 0.41l7.385-8.205c1.231-0.821 2.462-1.641 3.692-2.051l13.128-2.462 2.051-2.872c0.41-0.821 1.231-2.051 2.462-2.462l5.333-3.692c1.231-0.821 2.462-1.231 3.692-1.231 0 0 5.744-0.41 7.385-0.821 0.821 0 2.462 0 4.513 0h7.385c2.051 0 9.026-1.641 9.026-1.641 0.41 0 0.821 0 1.231 0 0.821 0 1.231 0.41 2.051 0.821 0.41-0.821 0.41-1.641 1.231-2.462l2.872-13.949c0-1.231 0.41-2.051 1.231-2.872l1.641-2.051 0.821-5.333c-1.641-0.41-3.692-1.641-4.513-3.282-1.231-2.051-1.641-4.513-0.821-6.974l1.641-4.103c0.41-1.231 1.231-2.462 2.462-3.282l2.051-1.641 2.462-15.59c0.41-3.692 3.692-6.974 7.385-6.974l36.513-0.41c0-0.41 0-1.231 0-1.641l1.641-15.59c0-1.231 0.821-2.462 1.231-3.282l2.051-2.872c0.41-0.821 1.231-1.231 2.051-2.051l5.744-4.103c0.821-0.41 1.641-0.821 2.462-1.231l1.231-0.41c0-0.821-0.41-1.641 0-2.462l1.641-6.974c0.41-1.231 0.821-2.051 1.641-3.282 0 0 2.051-2.872 2.051-2.051 0-0.41 0-1.231 0-2.051l-2.462-2.872c-1.231-1.231-1.641-2.872-2.051-4.513l-0.821-7.795c0-0.821 0-1.641 0.41-2.462 0 0 0.41-1.641 0.821-3.282-1.231-1.641-2.872-3.692-2.872-3.692l-4.103-4.923c-0.821-1.231-1.641-2.462-1.641-4.103l-0.41-4.513c-0.41-2.051 0.41-4.103 1.641-5.744l0.821-0.821-0.41-1.231c-0.821-1.641-2.051-4.103-2.462-6.154-0.821-2.872 0.41-5.744 1.231-7.385 0-2.051 0.821-4.103 2.051-7.385l0.41-0.41c0-0.821 0-2.051 1.641-6.154l0.821-25.026c0-4.103 2.872-7.385 6.974-7.795l7.795-0.821 2.051-0.821c0.821-0.41 1.231-0.41 2.051-0.41l23.385 0.41 11.897-2.872 2.872-4.513 0.821-11.487c0-2.051 0.821-4.103 2.462-5.744l1.231-1.231 2.872-13.128c0.41-1.231 0.821-2.462 1.641-3.282l2.051-2.872c1.641-2.051 3.692-2.872 6.154-2.872 0.41 0 0.41 0 0.821 0l7.385 0.821c1.231 0 2.051 0.41 3.282 0.821l5.744 3.282 0.821-0.41c1.231-1.231 2.462-2.051 4.103-2.462l-0.41-25.436-2.462-2.462c-2.051-1.641-3.282-4.103-3.282-6.564s1.641-4.923 4.103-6.154l2.051-1.231c1.231-0.821 2.462-0.821 3.692-0.821h2.872c0 0 0.41 0 0.41 0l3.282-9.026c0.41-2.051 2.051-3.692 4.103-4.923 0-0.821-0.821-1.231-0.821-1.641v-6.974l0.821-8.205h-6.564c-1.641 0-3.282-0.41-4.513-1.641l-31.59-19.282c-0.41-0.41-1.231-0.821-1.641-1.231l-54.564-55.385c-1.641-1.641-2.462-4.103-2.051-6.564s2.051-4.513 4.103-5.744l2.051-0.821c1.231-0.821 2.872-0.821 4.513-0.821l4.923 0.821c1.231 0 2.051 0.41 3.282 1.231l5.744 3.282 9.846-9.026 3.692-4.103v-1.231c0-2.051 0.821-3.692 2.051-4.923l2.462-2.872c2.051-2.051 4.923-3.282 7.795-2.462l4.923 1.641 2.051 1.231 4.103-4.923 4.103-3.282c1.641-1.641 4.103-2.051 6.564-1.641h0.821l1.231-1.231c0.41-0.821 1.231-1.231 2.051-1.641l3.282-1.641 9.026-9.436c1.641-2.051 4.103-3.282 6.564-2.872h1.641l0.821-1.231c0.41-1.231 1.231-2.462 2.051-3.282l5.744-6.564c1.231-1.641 2.872-2.872 4.923-2.872l2.462-1.641v-1.641c-3.692-2.051-6.564-4.513-6.564-9.026 0-1.231-0.41-12.308-0.41-12.308 0-2.872 1.641-5.744 4.103-6.974 1.231-0.41 2.051-0.821 3.282-0.821 1.641 0 3.282 0.41 4.923 1.641l12.718 7.795c1.641 0.821 2.872 2.051 3.282 3.282l2.462 4.103 4.513 4.923c0.821 0.821 1.641 2.051 2.051 3.692l3.692 13.538 2.051 3.692c0.41 0 0.821 0 1.231 0l5.333 0.41c0.821 0 1.641 0.41 2.462 0.821l6.564 3.282 6.564 5.333 18.872 19.692 7.795 11.077 15.179 32.821c0 0 0 0.41 0 0.41 1.231 0.41 2.872 1.231 3.692 2.872l9.436 9.846 9.846 5.333c2.462 2.462 4.103 4.513 4.923 6.974 0.41 1.231 2.462 8.615 2.462 8.615l2.051 8.205 0.41 30.359c0 0.821-0.41 8.205-0.41 9.436l-0.821 3.692c0.41 0.41 0.821 0.821 1.231 1.231l2.462 4.923 0.821 2.462 1.641 1.641c0.821 0.821 1.641 2.051 2.051 2.872l0.41 0.41c2.051 1.641 3.282 4.103 3.282 6.564v2.462l1.231 0.41c1.641 0.41 3.282 1.641 4.103 3.282l2.051 3.282 5.744 3.282c3.282 2.462 4.513 3.692 4.513 4.103 2.051 1.641 7.795 4.923 9.026 5.744l8.205 6.974 4.923 2.051 6.564 1.641c1.641 0.41 2.872 0.821 4.103 2.051l1.641 1.641 12.718 0.41c2.872 0 4.923 1.641 6.564 3.692l1.641 2.462 4.103 2.872 12.718 2.872c3.282 0.821 5.333 3.692 5.744 6.974 0.821 0 1.231-0.41 2.051-0.41s1.641 0 2.462 0.41l2.462 0.821c0.821 0.41 1.641 0.821 2.462 1.231 4.103-1.641 5.744-1.641 6.564-1.641 1.231 0 7.795-0.41 7.795-0.41 1.641 0 4.513 0.821 6.154 2.462l1.231 1.641c1.231-1.231 3.282-2.051 4.923-2.051h17.231l5.744 0.41c4.103 0.41 6.974 3.692 6.974 7.795l4.923 9.026 6.154 2.872 10.256 6.154c2.051 1.231 3.282 3.282 3.282 5.744l0.41 2.872c0 1.641 0 2.872-0.821 4.513l-0.821 8.615c0.41 0 0.41 0 0.821 0.41l16.821 20.923 4.923 11.897 0.41 2.051 3.282 1.641c1.641 0.821 6.154 4.103 6.154 9.026 0 1.641 0.821 6.564 0.821 7.385l0.821 11.077v7.795c0 0.821 0 1.641-0.41 2.462l-1.231 3.692c0.41 0.41 0.821 0.41 0.821 0.41l5.333 6.564 6.564 6.154c1.641 1.641 2.462 3.692 2.462 5.744v3.692c0 2.051-0.821 3.692-2.051 4.923l4.103 13.949 0.821 6.154 2.051 4.103c0.41 0.821 0.41 1.641 0.821 2.462l0.821 13.538c0 1.231-0.41 2.462-0.821 3.282l-0.821 2.051 0.41 4.513-1.231 20.513 1.231 6.974c0 1.231 0 2.462-0.41 3.692l-2.462 12.718 4.513 8.615c0.41 1.231 0.821 2.051 0.821 3.282v6.564c0 0 0 0.41 0 0.821h0.821c0.821-2.462 2.872-4.923 5.333-5.333 2.872-0.821 6.154 0 7.795 2.462l18.051 21.333c0.41 0.821 1.231 1.641 1.231 2.462l2.462 6.974c0.41 1.231 0 2.462 0 3.692 1.231 0.41 2.872 1.231 3.692 2.462l4.103 6.154 6.154 6.564 9.846 13.538c0.41 0.41 0.41 1.231 0.41 2.051 1.231 0.41 2.462 0.41 3.282 1.231l11.897 10.256 13.128 15.59c0.821 0.821 1.641 2.051 1.641 2.872l2.872 9.846c0 0.41 0 0.821 0 0.821 0.821 0.41 1.641 1.231 2.051 2.051l9.026 24.615c0.41 0.821 0.41 1.641 0.41 2.462v6.564c0 1.641-0.41 2.872-1.231 4.103-2.872 0.41-2.051 1.231-2.051 2.051zM600.615 788.103c0 0 0.41-0.41 0 0v0 0zM617.026 822.564c0.41 0.41 0.821 1.231 1.231 2.051l-1.231-2.051c0.41 0 0 0 0 0zM653.128 770.462l-3.282-2.051h-2.462l-1.641 1.231c-0.821 0.41-1.231 0.41-2.051 0.41l0.41 0.41c2.051-0.821 4.513-0.41 6.154 0.821l5.744 4.103h1.231l-4.103-4.923zM618.667 824.615c1.231 2.051 2.872 3.692 3.692 4.513l-3.692-4.513z" />
<glyph unicode="&#xe90e;" glyph-name="brinquedoteca" data-tags="brinquedoteca" horiz-adv-x="871" d="M478.822 622.49c0-23.979-19.439-43.418-43.418-43.418s-43.418 19.439-43.418 43.418c0 23.979 19.439 43.418 43.418 43.418s43.418-19.439 43.418-43.418zM828.621 463.565v0l-0.41 0.41c-5.325 2.458-11.059 4.096-17.203 5.325l-199.885 61.85c31.13 38.912 49.971 88.064 49.971 141.722 0 19.251-2.867 38.093-7.373 56.115 45.466 16.794 77.824 59.802 77.824 111.002 0 65.536-53.248 118.784-118.784 118.784-48.333 0-90.112-29.082-108.544-70.861-21.709 6.963-45.056 11.059-69.222 11.059-23.757 0-46.694-3.686-67.994-10.65-18.022 40.96-59.392 69.632-107.725 69.632-65.536 0-118.784-53.248-118.784-118.784 0-50.79 31.949-93.389 76.186-110.592-4.506-18.022-7.373-36.864-7.373-56.525 0-52.019 17.613-99.942 47.514-138.035l-197.018-61.030c-6.144-1.229-11.469-2.867-17.203-5.325h-0.41c-24.986-11.469-42.598-36.864-42.598-66.355 0-40.55 32.768-72.909 72.909-72.909 7.782 0 15.155 1.638 22.118 3.686l130.253 22.118c-11.878-27.443-18.432-57.754-18.432-89.702 0-0.819 0-1.638 0-2.458 0.819 0.41 1.638 0.819 2.458 1.229 14.746 5.325 30.31 8.192 46.285 8.192 18.842 0 36.864-4.096 54.067-10.65 0 1.229-0.41 2.458-0.41 4.096 0 70.451 56.934 127.386 127.386 127.386s127.386-56.934 127.386-127.386c0-0.41 0-1.229 0-1.638 15.565 5.734 32.358 8.602 49.152 8.602 15.974 0 31.539-2.867 46.285-8.192 1.638-0.41 2.867-1.229 4.506-2.048 0 1.229 0 2.048 0 3.277 0 29.901-6.144 58.573-16.384 84.787l128.205-21.709c6.963-2.048 14.336-3.686 22.118-3.686 40.55 0 72.909 32.768 72.909 72.909 0.41 29.491-16.794 54.886-41.779 66.355zM259.686 840.397c-27.853-27.853-43.827-63.488-43.827-63.488-33.178 33.178-36.864 83.149-7.782 111.821 28.672 28.262 78.643 24.576 111.821-8.602 0 0-32.768-11.878-60.211-39.731zM435.405 468.070c-69.632 0-125.747 56.525-125.747 125.747 0 69.632 56.525 125.747 125.747 125.747 69.632 0 125.747-56.525 125.747-125.747 0-69.632-56.115-125.747-125.747-125.747zM547.226 880.128c33.178 33.178 83.149 37.274 111.821 8.602 28.672-28.262 24.986-78.643-7.782-111.821 0 0-15.974 36.045-43.827 63.488s-60.211 39.731-60.211 39.731zM401.987 147.024c30.508-84.944-4.647-175.313-78.52-201.845s-158.491 20.82-188.999 105.764c-30.508 84.944 4.647 175.313 78.52 201.845s158.491-20.82 188.999-105.764zM466.633 146.86c30.508 84.944 115.126 132.296 188.999 105.764s109.028-116.901 78.52-201.845c-30.508-84.944-115.126-132.296-188.999-105.764s-109.028 116.901-78.52 201.845z" />
<glyph unicode="&#xe90f;" glyph-name="bt_enviar" data-tags="bt_enviar" horiz-adv-x="512" d="M409.526 345.584l-409.526-409.584v204.763l307.2 307.208-102.38 100.819v1.618l-204.82 204.767v204.825l511.967-512.029z" />
<glyph unicode="&#xe910;" glyph-name="bt_fechar" data-tags="bt_fechar" d="M129.622 951.124l885.486-885.457-120.787-120.783-885.432 885.477 120.734 120.762zM901.104 960l-901.104-901.1 122.896-122.9 901.104 901.104-122.896 122.896z" />
<glyph unicode="&#xe911;" glyph-name="bt_fechar_empreendimento" data-tags="bt_fechar_empreendimento" d="M1023.181 904.294l-54.886 54.886-456.294-456.294-456.294 456.294-54.886-54.886 456.294-456.294-456.294-456.294 54.886-54.886 456.294 456.294 456.294-456.294 54.886 54.886-456.294 456.294z" />
<glyph unicode="&#xe912;" glyph-name="bullet_direita" data-tags="bullet_direita" d="M512.77 961.278c-282.771 0-512-229.229-512-512 0-282.751 229.229-512 512-512 282.751 0 512 229.249 512 512 0 282.776-229.249 512-512 512zM588.28 405.447l-160.76-160.78v80.38l120.59 120.59-40.19 39.576v0.635l-80.4 80.38v80.409l200.97-200.991-40.21-40.198z" />
<glyph unicode="&#xe913;" glyph-name="busca" data-tags="busca" horiz-adv-x="958" d="M239.025 828.797c164.472 176.062 431.075 176.062 595.51 0 164.439-176.131 164.439-461.578 0-637.64-137.308-146.998-345.444-170.855-506.244-72.568l-138.744-148.603c-43.332-46.438-113.656-46.438-157.021 0-43.361 46.372-43.361 121.673 0 168.115l138.814 148.603c-91.809 172.189-69.561 395.16 67.686 542.093zM373.092 334.611c90.373-96.753 237.003-96.753 327.409 0 90.402 96.884 90.402 253.84 0 350.626-90.406 96.852-237.035 96.852-327.409 0-90.472-96.782-90.472-253.737 0-350.626z" />
<glyph unicode="&#xe914;" glyph-name="cameras" data-tags="cameras" horiz-adv-x="1357" d="M1225.057-62.698c56.167 3.413 96.673 11 131.643 24.99v367.387c-39.876 15.944-103.429 26.298-175.068 26.298-70.961 0-134.014-10.159-173.966-25.875l-0.033-368.228c39.979-15.716 103.033-25.837 173.993-25.88 14.875 0.005 29.408 0.467 43.43 1.308zM610.187 493.368l-0.071 0.076h-290.262v239.505h-319.854l251.081-354.737h440.6zM2.686 774.008h476.058l251.423-354.743 283.327 327.218v213.516h-402.195l-608.613-125.847zM1037.155 58.591l-252.166 179.246v454.33h157.013v-373.297l186.144-132.321z" />
<glyph unicode="&#xe915;" glyph-name="campo_futebol" data-tags="campo_futebol" horiz-adv-x="1634" d="M561.084 448c0-131.049 99.050-239.321 226.19-254.111v508.196c-127.134-14.758-226.19-123.036-226.19-254.085zM1072.835 448c0 131.049-99.043 239.327-226.184 254.085v-508.196c127.141 14.79 226.184 123.062 226.184 254.111zM0 766.593h253.007v-637.193h-253.007v-193.4h787.281v198.204c-159.957 15.006-285.561 149.996-285.561 313.796 0 163.813 125.611 298.79 285.561 313.796v198.204h-787.281v-193.407zM0 707.216h193.636v-518.451h-193.636v518.451zM1440.31 707.248h193.636v-518.464h-193.636v518.464zM846.652 960v-198.204c159.944-15.006 285.555-149.977 285.555-313.796 0-163.8-125.618-298.79-285.555-313.796v-198.204h787.294v193.4h-253.013v637.193h253.013v193.407h-787.294z" />
<glyph unicode="&#xe916;" glyph-name="casa" data-tags="casa" horiz-adv-x="1148" d="M1123.601 472.070l-474.082 457.764c-41.501 40.225-109.688 40.225-151.286 0l-474.050-457.76c-41.474-40.188-28.333-73.127 29.624-73.127h72.121c-0.335-2.842-0.592-5.634-0.592-8.462v-356.699c0-53.719 44.013-97.787 98.044-97.787h701.121c53.907 0 98.026 44.068 98.026 97.787v356.699c0 2.828-0.207 5.62-0.45 8.462h71.901c57.957 0 71.226 32.939 29.624 73.122z" />
<glyph unicode="&#xe917;" glyph-name="casa_2" data-tags="casa_2" horiz-adv-x="1242" d="M715.965 864.957l-95.068 95.043-620.897-620.947 52.323-52.352h85.381l483.193 483.184 483.193-483.184h85.436l52.347 52.352-525.909 525.904zM1038.927 851.425h-175.437v-80.27l175.437-175.452v255.722zM752.487 62.522h-263.183v263.193h263.183v-263.193zM620.927 715.41l-432.793-432.803v-346.602h865.591l-0.646 347.258-432.152 432.147z" />
<glyph unicode="&#xe918;" glyph-name="central_monitoramento" data-tags="central_monitoramento" horiz-adv-x="1246" d="M852.046 153.716v257.178c-51.675 12.154-133.175 19.99-224.935 19.99-92.637 0-174.865-7.976-226.44-20.319v-256.535c51.575-12.328 133.803-20.319 226.44-20.319 91.759 0 173.26 7.856 224.935 20.005zM533.009 407.903h-71.505c0 132.637 61.625 211.829 164.84 211.829 103.285 0 164.875-79.137 164.875-211.724h-71.51c0 63.973-16.201 140.209-93.365 140.209-77.133 0.005-93.335-76.306-93.335-140.314zM1059.309-64h-872.365v437.117h-186.944l623.129 586.883 623.129-586.883h-186.949v-437.117zM312.088 61.154h622.082v433.962l-311.041 292.99-311.046-292.985v-433.967z" />
<glyph unicode="&#xe919;" glyph-name="central_residuos" data-tags="central_residuos" horiz-adv-x="743" d="M519.635 648.282h-483.688l136.024-712.282h398.68l136.024 712.282h-187.040zM360.829 110.277c0-0.012-1.13-0.111-1.851-0.111-8.159-0.053-16.318-0.082-24.47-0.135-21.41-0.123-42.783-0.197-64.188-0.471-15.536-0.25-28.365 5.747-39.633 16.060-7.262 6.644-11.629 15.262-16.421 23.548-19.042 33.174-38.13 66.31-56.992 99.57-4.436 7.762-5.247 16.515-5.054 25.326 0.168 9.859 3.342 18.768 8.188 27.288 6.615 11.571 12.886 23.323 19.472 35.201-11.42 6.521-22.745 12.968-34.619 19.735 1.217 0.106 1.769 0.221 2.376 0.221 16.433 0.029 32.92 0.029 49.369 0.111 17.027 0.082 34.066 0.221 51.098 0.385 1.561 0 2.499-0.344 3.326-1.794 17.162-29.237 34.386-58.388 51.593-87.581 0.111-0.225 0.168-0.455 0.541-1.298-11.010 6.201-21.516 12.095-32.354 18.215-3.318-5.857-6.476-11.42-9.642-16.974-7.483-13.328-15.024-26.653-22.524-39.981-0.508-0.926-1.065-1.892-1.368-2.888-1.516-4.899 1.274-8.823 6.398-8.921 4.624-0.070 9.241-0.041 13.853-0.041 23.2 0.057 46.428 0.070 69.628 0.135 10.109 0.045 20.283 0.086 30.409 0.123 0.799 0.029 2.9 0 2.9 0-0.033-35.267-0.033-70.345-0.033-105.722zM383.341 375.861c10.383 6.148 20.767 11.989 31.4 18.215-3.146 5.427-6.16 10.506-9.282 15.729-7.873 13.386-15.745 26.71-23.663 40.133-0.279 0.467-0.561 0.926-0.889 1.409-3.617 5.55-9.2 5.439-12.481-0.274-18.772-32.563-37.511-65.151-56.279-97.743-0.483-0.856-0.979-1.671-1.626-2.736-30.56 17.568-61.051 35.103-91.709 52.756 3.023 5.382 5.992 10.662 8.987 15.938 12.386 21.791 24.625 43.721 37.298 65.343 7.705 13.119 19.833 20.701 34.357 24.281 5.054 1.27 10.387 1.876 15.61 1.933 17.203 0.164 34.386 0.012 51.618-0.057 24.695-0.086 49.385 0 74.072-0.438 10.494-0.197 19.718-4.71 28.201-10.744 7.762-5.526 12.927-13.177 17.65-21.295 5.8-9.957 11.85-19.759 17.76-29.635 0.336-0.553 0.696-1.090 1.217-1.905 11.239 6.545 22.401 13.038 33.559 19.53 0.082-0.111 0.193-0.209 0.27-0.319-0.25-0.565-0.52-1.114-0.799-1.671-16.511-28.942-33.030-57.86-49.521-86.802-0.856-1.532-1.847-1.987-3.502-1.987-18.862-0.029-37.704 0.467-56.537 0.315-14.311-0.094-28.615 0.111-42.951 0.111-0.881 0-1.769 0-2.679 0-0.025-0.016-0.057-0.254-0.082-0.086zM525.55 134.218c-4.887-8.274-12.673-13.697-21.185-18.006-9.114-4.641-15.655-5.743-25.682-5.718-12.374 0.070-34.054 0.057-34.054 0.057 0-13.574 0-26.489 0-40.145 0 1.094-4.448 1.548-4.727 2.073-16.794 28.762-35.185 57.557-51.999 86.307-0.774 1.356-1.745 2.347-0.942 3.772 16.679 29.25 36.487 58.483 53.088 87.761 0.25 0.401 4.583 0.811 4.583 1.171 0-12.083 0-24.195 0-36.598 0 0 3.391-0.029 6.656 0 18.366 0.168 34.91 0.303 53.248 0.512 1.52 0.012 2.265 0.152 3.703 0.635 4.358 1.438 5.247 5.784 2.646 10.26-5.079 8.851-10.416 17.65-15.52 26.489-13.898 23.974-27.873 47.972-41.759 71.959-0.336 0.647-0.745 1.298-1.159 2.167 30.487 17.621 60.895 35.242 91.529 52.945 3.064-5.194 5.968-10.138 8.897-15.065 12.726-21.877 25.575-43.708 38.281-65.634 4.887-8.466 6.513-17.789 6.21-27.509-0.438-12.157-4.69-22.925-10.826-33.337-20.505-34.619-40.55-69.485-60.989-104.096zM733.909 677.671l-21.185 46.068-5.882 12.718h-29.585l-102.846 223.543h-406.196l-102.842-223.535h-29.622l-5.829-12.714-29.921-65.004h742.613l-8.704 18.924zM538.227 712.614h-333.832c-19.747 0-35.762 15.999-35.762 35.758v35.766c0 19.755 16.015 35.766 35.762 35.766h333.832c19.743 0 35.766-16.007 35.766-35.766v-35.774c0.029-19.751-16.019-35.75-35.766-35.75z" />
<glyph unicode="&#xe91a;" glyph-name="cerca_eletrica" data-tags="cerca_eletrica" horiz-adv-x="1136" d="M982.040-64h-828.572c-55.382 0-105.018 28.665-132.674 76.625-27.725 47.969-27.725 105.217 0 153.186l414.257 717.564c27.725 48.001 77.356 76.625 132.738 76.625 55.377 0 105.018-28.624 132.674-76.625l414.257-717.564c27.725-47.969 27.725-105.217 0.068-153.186-27.729-47.964-77.297-76.625-132.747-76.625zM567.788 857.39c-8.816 0-30.659-2.475-43.89-25.318l-414.252-717.568c-13.158-22.847-4.41-43.023 0-50.572 4.41-7.617 17.437-25.318 43.822-25.318h828.572c26.394 0 39.484 17.701 43.822 25.318 4.41 7.549 13.231 27.725 0 50.572l-414.247 717.568c-13.163 22.842-35.074 25.318-43.827 25.318zM625.041 242.836h-18.972l64.198 222.662c1.204 4.27-0.268 8.884-3.806 11.605-3.475 2.743-8.285 3.075-12.159 0.84l-131.534-76.194 106.884 243.506c1.472 3.37 1.136 7.267-0.868 10.333-2.003 3.075-5.41 4.946-9.084 4.946h-78.896c-4.874 0-9.152-3.275-10.492-7.985l-93.594-337.482c-1.136-4.142 0.268-8.571 3.538-11.305 3.343-2.743 7.885-3.311 11.759-1.435l101.811 49.472-4.542-100.644-19.308 5.914c-3.738 1.172-7.881 0.2-10.688-2.521-2.875-2.725-4.074-6.745-3.075-10.556l28.724-114.32c1.067-4.106 4.41-7.286 8.616-8.017 0.6-0.132 1.335-0.2 1.935-0.2 3.543 0 6.886 1.735 8.952 4.674l69.544 99.572c2.271 3.32 2.539 7.667 0.668 11.273-1.862 3.602-5.537 5.859-9.611 5.859z" />
<glyph unicode="&#xe91b;" glyph-name="chat" data-tags="chat" horiz-adv-x="1252" d="M625.951 960c-345.683 0-625.921-221.487-625.951-494.668 0-124.983 58.866-239.099 155.705-326.213l-58.645-188.566c-6.139-13-1.082-18.223 11.222-11.833l273.682 71.175c74.976-25.224 157.428-39.12 243.986-39.12 345.688 0 625.981 221.462 625.981 494.643 0 273.096-280.292 494.583-625.981 494.583zM349.825 373.465c-48.395 0-87.615 41.169-87.615 91.867 0 50.783 39.221 91.922 87.615 91.922 48.445 0 87.64-41.138 87.64-91.922 0-50.698-39.195-91.867-87.64-91.867zM625.951 373.465c-48.42 0-87.615 41.169-87.615 91.867 0 50.783 39.195 91.922 87.615 91.922 48.395 0 87.615-41.138 87.615-91.922 0-50.698-39.221-91.867-87.615-91.867zM901.356 373.465c-48.39 0-87.615 41.169-87.615 91.867 0 50.783 39.226 91.922 87.615 91.922 48.45 0 87.675-41.138 87.675-91.922 0-50.698-39.226-91.867-87.675-91.867z" />
<glyph unicode="&#xe91c;" glyph-name="check" data-tags="check" d="M834.765 896.102c-165.069-74.957-280.166-245.76-370.688-395.674-49.152-81.51-95.027-167.117-134.758-255.181-37.274 65.126-82.739 124.518-140.493 169.984-2.867 2.458-187.187-1.638-189.235 0 125.338-99.123 195.379-263.782 239.616-412.877 1.229-4.506 188.006-4.506 189.235 0 49.971 174.899 131.482 342.835 224.461 498.483 89.702 149.914 206.029 320.717 370.688 395.674-3.277-2.048-183.091 2.458-188.826-0.41z" />
<glyph unicode="&#xe91d;" glyph-name="checkin" data-tags="checkin" horiz-adv-x="608" d="M231.145 317.202l72.614-381.202 72.659 381.202c-23.761-3.334-48.042-5.034-72.659-5.034-24.637 0-48.886 1.696-72.614 5.034zM303.784 960c-167.764 0-303.784-135.991-303.784-303.751 0-167.764 136.020-303.751 303.784-303.751 167.727 0 303.759 135.987 303.759 303.751 0 167.76-136.032 303.751-303.759 303.751z" />
<glyph unicode="&#xe91e;" glyph-name="churrasqueira" data-tags="churrasqueira" horiz-adv-x="1070" d="M465.259 315.232c8.976 0.265 16.976 4.017 24.463 8.663 7.465 4.642 14.285 10.422 17.485 18.396 11.243 27.085-19.064 48.729-19.71 75.168-0.244 9.908 3.444 20.642 15.953 30.397-8.663 0.8-17.998-1.356-25.729-5.865-7.709-4.535-14.174-9.421-17.553-17.040-11.953-26.153 10.246-45.263 16.287-69.837 3.534-14.396-2.507-27.821-11.196-39.881zM515.964 315.232c9.001 0.265 16.976 4.017 24.484 8.663 7.465 4.642 14.289 10.422 17.489 18.396 11.243 27.085-19.064 48.729-19.705 75.168-0.248 9.908 3.444 20.642 15.953 30.397-8.685 0.8-17.973-1.356-25.729-5.865-7.735-4.535-14.199-9.421-17.553-17.040-11.953-26.153 10.242-45.263 16.266-69.837 3.53-14.396-2.494-27.821-11.205-39.881zM568.402 315.232c8.98 0.265 16.955 4.017 24.441 8.663 7.465 4.642 14.311 10.422 17.511 18.396 11.243 27.085-19.064 48.729-19.705 75.168-0.248 9.908 3.444 20.642 15.953 30.397-8.685 0.8-17.973-1.356-25.733-5.865-7.731-4.535-14.195-9.421-17.571-17.040-11.932-26.153 10.263-45.263 16.308-69.837 3.508-14.396-2.516-27.821-11.205-39.881zM675.592-37.646h-7.243l0.047 0.026-48.13 143.782c-7.667-3.534-15.556-6.601-23.641-9.181l9.776-29.173h-143.499l9.934 29.199c-8.064 2.554-15.953 5.643-23.641 9.198l-28.886-84.927c-0.714 0-1.399 0.090-2.135 0.090-23.778 0-43.107-19.154-43.107-42.688 0-23.53 19.333-42.684 43.107-42.684 23.753 0 43.107 19.154 43.107 42.684 0 13.866-6.755 26.174-17.13 33.973l10.221 30.042h160.428l26.863-80.349h-4.111c-7.003 0-12.689-5.617-12.689-12.531 0-6.931 5.686-12.574 12.689-12.574h38.042c6.999 0 12.663 5.643 12.663 12.574 0 6.922-5.664 12.539-12.663 12.539zM418.177-38.887c-9.801 0-17.755 7.889-17.755 17.571 0 9.69 7.953 17.575 17.755 17.575 9.776 0 17.75-7.889 17.75-17.575 0-9.682-7.975-17.571-17.75-17.571zM767.047 302.252c-10.956 3.132-22.396-3.132-25.554-13.981-0.757-2.554-0.933-5.13-0.689-7.641l-15.222-7.465c1.266 9.198 1.934 18.597 1.934 28.129h-385.491c0-9.553 0.689-18.931 1.977-28.129l-15.265 7.465c0.244 2.511 0.068 5.087-0.667 7.641-3.179 10.845-14.619 17.113-25.575 13.981-10.978-3.132-17.31-14.469-14.131-25.31 3.153-10.867 14.597-17.13 25.554-13.998 2.824 0.804 5.335 2.156 7.444 3.91l26.307-12.95c14.11-59.103 53.905-107.832 106.608-132.787l0.021-0.021c7.598-3.602 15.444-6.708 23.53-9.288h0.021c13.357-4.244 27.308-7.063 41.708-8.223 11.821-1.467 21.13-0.625 30.397 0 83.814 6.734 152.561 68.592 172.026 150.383l26.195 12.886c2.131-1.754 4.62-3.11 7.444-3.91 10.952-3.127 22.392 3.132 25.554 13.998 3.162 10.841-3.149 22.178-14.127 25.31zM642.196 158.715c0 0 24.441 36.326 32.887 63.082 10.225 32.352 8.467 61.944 8.467 61.944h25.4c-4.762-50.701-29.866-95.318-66.753-125.026zM79.878 511.961h95.768v-559.914h-95.768v559.914zM909.853 511.961h95.772v-559.914h-95.772v559.914zM171.757 646.814v95.477l127.563 217.555h-85.876l-213.444-217.555v-95.477c0-48.019 38.44-86.924 85.855-86.924 47.441 0 85.902 38.906 85.902 86.924zM534.762 559.89c47.415 0 85.876 38.906 85.876 86.924v95.477l-42.949 217.709h-85.855l-42.953-217.709v-95.477c0-48.019 38.465-86.924 85.881-86.924zM224.443 646.814c0-48.019 38.44-86.924 85.855-86.924 47.441 0 85.902 38.906 85.902 86.924v95.477l42.307 217.709h-85.881l-128.183-217.709v-95.477zM673.35 646.814c0-48.019 38.435-86.924 85.876-86.924 47.415 0 85.855 38.906 85.855 86.924v95.477l-128.205 217.709h-85.855l42.333-217.709v-95.477zM856.085 960h-85.885l127.584-217.709v-95.477c0-48.019 38.44-86.924 85.859-86.924 47.462 0 85.902 38.906 85.902 86.924v95.477l-213.461 217.709z" />
<glyph unicode="&#xe91f;" glyph-name="churrasqueirasemquiosque" data-tags="churrasqueirasemquiosque" d="M385.024 663.45c15.974 0.41 29.901 6.963 43.008 15.155s25.395 18.432 30.72 32.358c19.661 47.514-33.587 85.606-34.816 131.891-0.41 17.203 6.144 36.045 28.262 53.248-15.155 1.229-31.539-2.458-45.466-10.24-13.517-7.782-24.986-16.384-31.13-29.901-20.89-45.875 18.022-79.462 28.672-122.47 6.554-25.395-4.096-48.742-19.251-70.042zM474.317 663.45c15.974 0.41 29.901 6.963 43.008 15.155s25.395 18.432 30.72 32.358c19.661 47.514-33.587 85.606-34.816 131.891-0.41 17.203 6.144 36.045 28.262 53.248-15.155 1.229-31.539-2.458-45.466-10.24-13.517-7.782-24.986-16.384-31.13-29.901-20.89-45.875 18.022-79.462 28.672-122.47 6.963-25.395-3.686-48.742-19.251-70.042zM566.886 663.45c15.974 0.41 29.901 6.963 43.008 15.155s25.395 18.432 30.72 32.358c19.661 47.514-33.587 85.606-34.816 131.891-0.41 17.203 6.144 36.045 28.262 53.248-15.155 1.229-31.539-2.458-45.466-10.24-13.517-7.782-24.986-16.384-31.13-29.901-20.89-45.875 18.022-79.462 28.672-122.47 6.963-25.395-3.686-48.742-19.251-70.042zM756.122 45.363h-12.698l-84.787 251.904c-13.517-6.144-27.443-11.469-41.779-15.974l17.203-51.2h-253.133l17.613 51.2c-14.336 4.506-28.262 9.83-41.779 15.974l-50.79-148.685c-1.229 0-2.458 0-3.686 0-41.779 0-76.186-33.587-76.186-74.957s33.997-74.957 76.186-74.957c41.779 0 76.186 33.587 76.186 74.957 0 24.166-11.878 45.875-30.31 59.392l18.022 52.838h283.034l47.514-140.902h-7.373c-12.288 0-22.528-9.83-22.528-22.118s9.83-22.118 22.528-22.118h67.174c12.288 0 22.528 9.83 22.528 22.118-0.819 12.288-10.65 22.528-22.938 22.528zM301.875 42.906c-17.203 0-31.13 13.926-31.13 30.72s13.926 30.72 31.13 30.72c17.203 0 31.13-13.926 31.13-30.72 0.41-16.794-13.926-30.72-31.13-30.72zM917.504 640.922c-19.251 5.325-39.322-5.325-45.056-24.576-1.229-4.506-1.638-9.011-1.229-13.517l-27.034-13.107c2.048 15.974 3.277 32.768 3.277 49.152h-679.936c0-16.794 1.229-33.178 3.686-49.152l-27.034 13.107c0.41 4.506 0 9.011-1.229 13.517-5.734 18.842-25.805 29.901-45.056 24.576s-30.72-25.395-24.986-44.237c5.734-18.842 25.805-29.901 45.056-24.576 4.915 1.229 9.421 3.686 13.107 6.963l46.285-22.528c24.986-103.629 95.027-188.826 188.006-232.653v0c13.517-6.144 27.443-11.878 41.37-16.384 0 0 0 0 0 0 23.347-7.373 48.333-12.288 73.728-14.336 20.89-2.458 37.274-1.229 53.658 0 147.866 11.878 269.107 120.422 303.514 263.373l46.285 22.528c3.686-2.867 8.192-5.325 13.107-6.963 19.251-5.325 39.322 5.325 45.056 24.576 5.734 18.842-5.325 38.502-24.576 44.237zM697.139 389.427c0 0 43.008 63.488 58.163 110.592 18.022 56.525 14.746 108.544 14.746 108.544h44.646c-8.192-88.883-52.429-167.117-117.555-219.136z" />
<glyph unicode="&#xe920;" glyph-name="ciclovia" data-tags="ciclovia" horiz-adv-x="2171" d="M174.646 335.21h99.809v-49.9h-99.809v49.9zM1896.242 335.21h174.655v-49.9h-174.655v49.9zM249.501 659.574h174.655l-49.9-49.909h-124.755v49.909zM1896.242 659.574h-174.646l49.9-49.909h124.746v49.909zM948.121 335.21h49.9v-49.9h-49.9v49.9zM1540.75 641.54c-56.577 0-109.404-14.917-154.867-40.549l-82.27 100.339 51.559 116.419c0.365 0.825 0.243 1.676 0.538 2.535h45.906c17.348 0 31.38 13.38 31.38 29.869s-14.031 29.869-31.38 29.869h-162.525c-17.4 0-31.432-13.38-31.432-29.869 0-16.497 14.031-29.869 31.432-29.869h49.023l-30.208-68.377c-1.32 0.096-2.388 0.66-3.708 0.66h-460.563l48.224 124.633 93.106 24.121c16.645 4.576 26.318 21.125 21.516 36.989-4.75 15.872-22.167 25.067-38.908 20.518l-103.942-28.445c-6.286-1.728-23.704-14.622-27.438-24.208l-106.043-273.891c-24.173 5.817-49.318 9.256-75.384 9.256-168.464 0-304.915-129.947-304.941-290.154 0.026-160.276 136.477-290.145 304.941-290.223 168.412 0.078 304.967 129.947 305.010 290.223-0.043 114.327-69.732 212.938-170.704 260.233l22.072 57.116 316.558-353.721c0.043 0 0.096 0 0.096-0.069 3.291-5.583 8.092-10.532 14.813-13.207 4.003-1.563 8.188-2.362 12.286-2.362 6.208 0 12.33 1.884 17.444 5.123h117.835c23.635-137.892 148.893-243.249 300.573-243.249 168.464 0 304.958 129.869 305.062 290.145-0.104 160.198-136.598 290.145-305.062 290.145zM846.975 351.386c-0.295-127.229-108.457-230.208-242.216-230.399-133.768 0.191-241.903 103.169-242.103 230.399 0.191 127.221 108.336 230.216 242.103 230.459 18.416-0.096 36.251-2.188 53.53-5.948l-84.432-217.974c-5.948-15.447 2.344-32.708 18.573-38.352 3.603-1.268 7.311-1.858 10.914-1.858 12.746 0 24.755 7.502 29.435 19.545l84.432 218.026c77.017-38.621 129.548-115.351 129.765-203.899zM1335.392 565.418c-57.949-50.343-95.181-121.49-98.88-201.138h-82.113l121.29 273.969 59.703-72.832zM1374.152 518.122l126.144-153.842h-200.99c3.629 60.502 31.605 114.717 74.846 153.842zM1230.912 692.856l0.538-0.634-135.278-305.67-274.099 306.304h408.839zM1540.75 120.988c-116.836 0.191-214.127 78.849-237.032 183.503h251.75c3.499-1.198 7.137-1.98 10.862-1.98 6.721 0 13.554 2.040 19.276 6.286 7.823 5.826 11.479 14.474 11.6 23.279 0.078 0.781 0.538 1.485 0.538 2.353 0 1.632-0.755 3.117-1.068 4.784-0.078 0.434-0.174 0.903-0.243 1.337-1.615 6.842-5.288 12.642-10.819 16.853l-160.789 196.145c34.453 17.904 73.926 28.141 115.933 28.237 133.794-0.191 241.973-103.117 242.216-230.407-0.252-127.221-108.431-230.199-242.225-230.39zM-0.009-64v49.9h2170.706v-49.9h-2170.706z" />
<glyph unicode="&#xe921;" glyph-name="deck_molhado" data-tags="deck_molhado" horiz-adv-x="1120" d="M466.42 750.561h42.838v-555.501h-42.838v555.501zM466.42 16.859h42.838v-57.466h-42.838v57.466zM1061.9-61.442l57.068 25.283-32.636 73.663h4.104v90.048h-722.904l-200.742 338.158-77.427-45.97 208.789-351.649-56.655-101.715 54.541-30.378 56.539 101.505h665.469zM380.781 154.4h88.888v-19.53h-88.888v19.53zM502.999 154.4h88.897v-19.53h-88.897v19.53zM625.185 154.4h88.888v-19.53h-88.888v19.53zM747.399 154.4h88.888v-19.53h-88.888v19.53zM869.576 154.4h88.888v-19.53h-88.888v19.53zM991.83 154.4h88.892v-19.53h-88.892v19.53zM228.898 377.168l-45.4 76.392 16.784 9.956 45.4-76.387zM291.324 272.106l-45.4 76.405 16.748 9.96 45.441-76.41zM325.105 253.439l45.437-76.411-16.744-9.957-45.437 76.411 16.744 9.957zM487.837 960l9.512-23.083 9.633-23.168h-38.245l9.588 23.168zM971.225 718.028c-59.259 76.024-265.732 160.136-450.55 202.346-1.138 0-29.912 1.42-32.797 1.644-2.926-0.224-31.704-1.644-32.801-1.644-184.81-42.206-391.278-126.322-450.577-202.346-4.144-5.345-5.161-36.825-5.65-54.913 79.945-4.655 159.934-1.788 254.306-3.19l41.050 53.976 1.138-54.688c58.851-0.551 134.329-0.65 192.53-0.448 58.161-0.202 133.688-0.103 192.498 0.448l1.138 54.688 41.050-53.976c94.376 1.402 174.362-1.465 254.311 3.19-0.479 18.088-1.456 49.567-5.645 54.913z" />
<glyph unicode="&#xe922;" glyph-name="div_pontos" data-tags="div_pontos" horiz-adv-x="226" d="M0 960h225.595v-226.005h-225.595v226.005zM0 561h225.595v-226.005h-225.595v226.005zM0 162.005h225.595v-226.005h-225.595v226.005z" />
<glyph unicode="&#xe923;" glyph-name="documento" data-tags="documento" horiz-adv-x="808" d="M649.343 144.163h-490.525c-15.081 0-27.419-12.354-27.419-27.431v-20.89c0-15.090 12.341-27.423 27.419-27.423h490.525c15.090 0 27.431 12.337 27.431 27.423v20.89c0.004 15.077-12.341 27.431-27.431 27.431zM649.343 281.895h-490.525c-15.081 0-27.419-12.354-27.419-27.431v-20.89c0-15.090 12.341-27.423 27.419-27.423h490.525c15.090 0 27.431 12.337 27.431 27.423v20.89c0.004 15.077-12.341 27.431-27.431 27.431zM649.343 419.619h-490.525c-15.081 0-27.419-12.341-27.419-27.427v-20.89c0-15.086 12.341-27.427 27.419-27.427h490.525c15.090 0 27.431 12.345 27.431 27.427v20.89c0.004 15.086-12.341 27.427-27.431 27.427zM649.343 557.347h-490.525c-15.081 0-27.419-12.341-27.419-27.427v-20.89c0-15.086 12.341-27.427 27.419-27.427h490.525c15.090 0 27.431 12.341 27.431 27.427v20.89c0.004 15.086-12.341 27.427-27.431 27.427zM401.83 695.079h-243.012c-15.081 0-27.419-12.341-27.419-27.427v-20.89c0-15.086 12.341-27.427 27.419-27.427h243.007c15.090 0 27.431 12.341 27.431 27.427v20.89c0.004 15.086-12.341 27.427-27.427 27.427zM584.196 902.82c-0.782 0.778-1.565 1.438-2.351 2.183l-50.008 50.016c-2.761 2.761-8.143 4.981-12.042 4.981h-414.646c-57.983 0-105.148-47.161-105.148-105.136v-764.596h82.289v764.596c0 12.386 10.473 22.856 22.864 22.856h363.549v-151.917c0-57.983 47.165-105.14 105.144-105.14h152.039v-579.518c0-12.382-10.473-22.864-22.864-22.864h-597.869c-12.39 0-22.864 10.482-22.864 22.864v57.901h-82.289v-57.901c0-57.979 47.165-105.144 105.153-105.144h597.869c57.971 0 105.148 47.165 105.148 105.144v630.501c0 3.887-2.232 9.269-4.993 12.022l-50.029 50.045c-0.778 0.815-1.462 1.622-2.286 2.441l-166.666 166.666zM550.982 725.799v105.091c0 3.899 2.232 4.817 4.985 2.068l125.039-125.034c2.757-2.748 1.827-4.985-2.060-4.985h-105.099c-12.394 0-22.864 10.478-22.864 22.86z" />
<glyph unicode="&#xe924;" glyph-name="download" data-tags="download" horiz-adv-x="683" d="M0-7.111h682.668v-56.889h-682.668v56.889zM226.054 222.47l115.278-174.715 115.282 174.715h-0.156l226.21 339.309h-113.779l-170.668-256v654.221h-113.775v-654.221l-170.668 256h-113.779l226.206-339.309z" />
<glyph unicode="&#xe925;" glyph-name="educacao" data-tags="educacao" horiz-adv-x="1651" d="M1596.406 686.205l-704.099 259.135c-69.621 25.635-180.243 16.76-245.816-19.718l-531.642-295.824c-6.042-3.355-11.299-6.868-16.165-10.44-0.575 0.040-1.136 0.211-1.73 0.211-17.631 0-31.921-17.004-31.921-37.977v-359.693c-12.058-11.299-19.949-28.6-19.949-48.285 0-21.27 9.053-40.017 22.809-51.105l-7.825-16.139c-10.321-21.27-27.213-56.064-37.554-77.327l-18.107-37.31c-10.321-21.303-1.875-38.683 18.774-38.683h36.227c20.643 0 54.439 0 75.082 0h36.24c20.643 0 29.088 17.387 18.761 38.683l-18.113 37.31c-10.315 21.263-27.213 56.057-37.541 77.327l-7.838 16.139c13.768 11.094 22.822 29.841 22.822 51.105 0 19.678-7.891 37.006-19.956 48.298v292.536l697.45-256.725c69.641-25.635 180.249-16.753 245.822 19.738l531.649 295.818c65.573 36.491 62.265 87.312-7.376 112.927zM812.747 210.125l-393.589 155.354v-270.836h0.535c10.955-88.322 203.56-158.643 439.616-158.643 236.069 0 428.66 70.321 439.616 158.643h0.535v263.612l-207.997-124.133c-75.802-45.221-198.224-55.76-278.714-23.997z" />
<glyph unicode="&#xe926;" glyph-name="eficiencia_energetica" data-tags="eficiencia_energetica" horiz-adv-x="966" d="M598.159 579.412c-14.545 12.853-29.393 24.003-44.433 33.354-3.801-15.376-5.382-31.351-9.904-46.387-7.008-14.246-9.953-30.409-19.255-43.295 19.481-1.884 37.569-1.167 56.369 1.278 18.878 2.224 38.552 6.144 58.601 11.719-11.69 15.598-27.21 30.634-41.378 43.332zM510.808 501.113c-8.888-13.152-21.209-23.515-31.273-35.836-13.111-9.007-24.793-20.050-38.547-27.886 16.093-11.645 31.388-18.69 49.365-26.833 17.633-7.574 36.704-14.168 56.934-19.444-3.543 20.574-8.327 40.096-14.32 58.372-6.328 18.653-12.055 34.517-22.159 51.626zM325.796 405.094c8.065-15.786 17.789-31.728 29.241-47.399 11.379-15.188 24.871-32.559 39.264-45.109 7.422 19.37 13.115 38.547 17.183 57.127 4.145 18.313 6.484 36.512 6.484 56.033-13.722-8.253-30.147-9.384-44.958-15.036-15.413-3.617-31.539-3.24-47.215-5.616zM209.998 435.245c-1.585-18.878-0.827-37.081 1.016-56.746 2.077-19.37 6.255-38.212 11.796-58.143 15.942 12.513 30.56 26.489 43.295 40.358 12.964 14.696 24.191 30.147 33.763 45.408-15.753 2.073-31.277 5.161-46.424 9.871-14.995 5.083-29.688 11.334-43.446 19.251zM153.027 481.063c-10.965 11.493-20.161 24.646-28.226 38.248-10.248-15.266-19.968-32.068-27.316-49.627-7.877-17.711-14.397-36.663-18.878-56.033 19.821 2.523 39.191 7.119 57.729 13.226 18.088 5.693 35.758 13.529 52.003 22.385-12.816 9.265-24.953 19.784-35.312 31.801zM98.198 587.362c-3.203 15.565-4.747 31.351-5.124 47.292-16.204-8.065-32.78-17.826-48.57-29.241-15.11-11.268-30.482-24.42-44.503-39.039 19.292-7.537 37.683-13.451 56.635-17.486 19.481-3.809 37.495-6.369 56.332-6.595-6.48 14.434-11.153 29.622-14.77 45.068zM48.91 694.493c14.545-12.96 30.142-24.379 45.445-33.948 1.995 15.749 5.124 31.277 9.949 46.461 5.087 14.959 11.305 29.581 19.255 43.295-18.956 1.729-36.93 0.942-56.713-0.868-19.444-1.921-38.212-6.029-58.106-11.567 12.362-15.978 26.415-30.634 40.169-43.373zM102.343 881.807c2.523-19.857 6.971-39.186 13.111-57.766 5.652-18.051 13.341-35.758 22.233-52.15 9.269 12.886 19.821 24.986 31.879 35.344 11.604 10.891 24.646 20.050 38.359 28.037-15.225 10.289-32.141 20.124-49.512 27.472-17.711 7.836-36.7 14.541-56.070 19.063zM255.255 960c-7.537-19.218-13.566-37.72-17.596-56.599-3.883-19.444-6.406-37.569-6.82-56.254 14.545 6.402 29.692 11.076 45.142 14.655 15.602 3.092 31.429 4.674 47.329 5.046-7.987 16.13-17.707 32.674-29.012 48.611-11.305 15.106-24.383 30.372-39.043 44.54zM426.742 950.841c-15.974-12.247-30.708-26.378-43.52-40.206-12.964-14.279-24.42-29.995-34.030-45.22 15.753-2.032 31.318-5.202 46.461-10.097 14.926-5.087 29.544-11.346 43.262-19.407 1.806 19.067 1.057 37.003-0.717 56.746-1.843 19.562-5.992 38.212-11.457 58.184zM495.739 789.791c10.777-11.645 19.976-24.719 27.927-38.478 10.289 15.188 20.23 32.178 27.656 49.553 7.729 17.56 14.623 36.553 19.177 55.96-19.968-2.564-39.182-6.82-57.799-13.001-18.162-5.542-35.762-13.152-52.191-22.086 12.923-9.15 24.83-20.005 35.23-31.949zM549.962 683.188c3.097-15.524 4.6-31.347 4.936-47.251 16.249 7.877 32.633 17.56 48.726 28.905 15.143 11.227 30.327 24.265 44.646 38.846-19.214 7.578-37.753 13.681-56.521 17.826-19.44 3.92-37.679 6.369-56.295 6.93 6.332-14.623 10.932-29.77 14.508-45.257zM509.682 636.31c0-102.531-83.087-185.467-185.541-185.467-102.42 0-185.471 82.936-185.471 185.467 0 102.494 83.050 185.508 185.471 185.508 102.453 0 185.541-83.010 185.541-185.508zM464.2 206.062c21.217 0 38.584-17.334 38.584-38.547v-192.967c0-21.18-17.367-38.547-38.584-38.547h-77.173c-21.213 0-38.584 17.367-38.584 38.547v192.967c0 21.213 17.371 38.547 38.584 38.547h77.173zM695.714 360.407c21.217 0 38.593-17.334 38.593-38.588v-347.271c0-21.18-17.375-38.547-38.593-38.547h-77.169c-21.217 0-38.584 17.367-38.584 38.547v347.271c0 21.25 17.367 38.588 38.584 38.588h77.169zM927.232 553.374c21.217 0 38.584-17.371 38.584-38.625v-540.205c0-21.18-17.367-38.547-38.584-38.547h-77.169c-21.217 0-38.593 17.367-38.593 38.547v540.209c0 21.25 17.375 38.625 38.593 38.625h77.169z" />
<glyph unicode="&#xe927;" glyph-name="endereco" data-tags="endereco" horiz-adv-x="768" d="M403.673 959.574c-6.562 0.311-13.124 0.434-19.747 0.434s-13.218-0.123-19.751-0.434c-202.867-10.281-364.175-177.713-364.175-382.738 0-241.959 383.926-640.823 383.926-640.823s383.922 398.864 383.922 640.823c0 205.025-161.3 372.457-364.175 382.738zM383.926 385.245c-105.935 0-191.869 85.778-191.869 191.586 0 105.746 85.934 191.431 191.869 191.431s191.869-85.684 191.869-191.431c0-105.804-85.934-191.586-191.869-191.586z" />
<glyph unicode="&#xe928;" glyph-name="energia_eletrica" data-tags="energia_eletrica" horiz-adv-x="616" d="M616.489 651.756c0 170.254-138.015 308.244-308.244 308.244-170.209 0-308.244-137.986-308.244-308.244 0-66.527 21.144-128.070 56.979-178.438 42.963-71.688 97.518-147.849 97.518-226.406v-4.465c0-5.644 4.604-10.248 10.248-10.248h287.007c5.624 0 10.248 4.604 10.248 10.248v4.465c0 83.104 58.081 159.343 101.102 231.457 33.673 49.406 53.387 109.085 53.387 173.388zM431.247 96.559h-246.002c-16.986 0-30.753-13.771-30.753-30.753 0-16.994 13.763-30.749 30.753-30.749h246.002c16.982 0 30.753 13.75 30.753 30.749-0.004 16.982-13.775 30.753-30.753 30.753zM431.247 194.798h-246.002c-16.986 0-30.753-13.771-30.753-30.749 0-16.994 13.763-30.753 30.753-30.753h246.002c16.982 0 30.753 13.754 30.753 30.753-0.004 16.978-13.775 30.749-30.753 30.749zM215.994-2.499c-5.644 0-6.988-3.26-3.002-7.246l47.010-47.010c3.985-3.985 11.854-7.25 17.494-7.25h61.506c5.624 0 13.513 3.265 17.494 7.25l47.010 47.010c3.985 3.985 2.621 7.246-3.002 7.246h-184.508z" />
<glyph unicode="&#xe929;" glyph-name="energia_subterranea" data-tags="energia_subterranea" horiz-adv-x="1101" d="M660.103 121.846h-29.128l98.872 342.564c2.051 6.564-0.41 13.538-5.744 18.051-5.333 4.103-12.718 4.923-18.872 1.231l-202.256-117.333 164.513 374.564c2.051 5.333 1.641 11.077-1.231 16-3.282 4.923-8.205 7.795-13.949 7.795h-121.436c-7.385 0-13.949-4.923-16-12.308l-144.41-519.385c-1.641-6.564 0.41-13.128 5.333-17.231s12.308-4.923 18.051-2.051l156.718 75.897-6.974-154.667-29.538 9.026c-5.744 1.641-11.897 0.41-16.41-3.692s-6.154-10.256-4.923-16.41l44.308-176c1.641-6.154 6.564-11.077 13.128-12.308 0.821-0.41 2.051-0.41 2.872-0.41 5.333 0 10.667 2.462 13.949 7.385l107.077 153.026c3.692 4.923 4.103 11.897 1.231 17.231-3.282 5.744-9.026 9.026-15.179 9.026zM1094.154 860.308h-1088c-3.282 0-6.154 2.872-6.154 6.154v88.205c0 3.282 2.872 6.154 6.154 6.154h1088c3.282 0 6.154-2.872 6.154-6.154v-88.205c0-3.282-2.462-6.154-6.154-6.154z" />
<glyph unicode="&#xe92a;" glyph-name="espaco_gourmet" data-tags="espaco_gourmet" d="M519.373 960c-287.949 1.229-518.554-224.87-519.373-509.133-0.41-225.28 140.493-415.334 339.968-485.376 0.819 47.923-4.915 94.618-25.395 143.36-63.078 149.914-64.717 308.019-17.613 463.258 12.698 41.779 45.056 91.341 73.318 114.688 8.192 6.554 26.624 13.107 36.045 9.83 13.517-4.506 13.107-22.528 13.107-34.816 0.819-191.693 0.41-383.386 0.41-575.078 0 0-0.41 0-0.41 0 0-47.514 0-94.618 0-142.131 29.491-5.325 59.802-8.192 90.931-8.192 19.661 0 39.322 1.229 58.573 3.277 3.277 84.378 6.554 168.755 10.24 252.723 1.638 33.178-8.602 52.838-40.55 61.85-25.395 6.963-36.454 24.576-36.454 50.381 0 113.050 0 219.546 0.41 332.186 0 9.011 3.686 24.986 5.734 33.997 4.506 0 28.672 0 32.768 0 2.048-12.288 5.325-21.709 5.325-33.997 0.41-63.898-0.819-135.987 1.229-199.885 0.41-15.155 6.963-39.322 16.794-39.731 6.554 13.107 18.022 26.624 18.432 39.731 2.048 65.126 0.41 134.758 0.819 199.885 0 13.107 2.867 20.89 4.506 33.997 3.686 0.41 33.178-0.41 37.274 0 2.867-11.469 3.686-22.528 4.096-33.997 0.819-67.584-0.819-132.301 1.229-199.885 0.41-13.107 12.288-27.034 19.251-39.731 6.963 13.107 20.48 26.624 20.89 39.731 2.048 66.355 0.41 133.53 0.819 199.885 0 12.288 3.277 21.709 5.325 33.997 3.686 0 31.539 0 35.226 0 1.638-10.24 4.915-23.757 4.915-33.997 0.41-108.954-0.41-214.63 0-323.994 0-31.13-7.782-52.429-41.37-61.44-30.72-8.192-36.864-33.587-35.226-62.669 3.686-77.824 6.963-155.238 10.24-233.062 214.221 60.621 372.326 255.59 372.736 486.195 1.229 284.672-225.28 516.915-504.218 518.144z" />
<glyph unicode="&#xe92b;" glyph-name="espaco_pet" data-tags="espaco_pet" horiz-adv-x="985" d="M955.187 661.402c0 0-211.763 107.315-212.582 107.725l-27.443 74.547c-5.734 15.155-21.299 24.576-37.683 22.118-18.842-3.277-31.13-20.89-28.262-39.322l15.974-95.437-82.33-121.242 200.294-132.71 20.070 43.418h111.002c20.89 0 39.731 12.698 47.923 31.949l17.613 43.008c10.24 25.395-0.41 54.067-24.576 65.946zM103.629 33.894l27.034 166.707 140.902 97.894c16.384-9.83 38.912-21.709 68.813-33.178 79.872-30.72 178.176-47.923 292.454-50.79v-172.032c0-28.672 23.347-51.61 51.61-51.61s51.61 23.347 51.61 51.61v332.186l21.709 47.514-208.077 138.035h-381.747l-79.053 125.338c-8.602 13.517-25.805 19.661-41.37 13.517-17.613-6.963-26.214-26.624-19.251-44.237 0 0 79.462-205.619 83.558-216.269 25.805-67.174-57.754-144.179-58.573-144.998-9.011-7.782-15.155-18.842-16.794-30.72l-34.816-212.173c-4.506-28.262 14.746-54.886 42.598-59.392 2.867-0.41 5.734-0.819 8.192-0.819 25.395 0 47.104 18.022 51.2 43.418zM519.373 592.998c9.011 0 17.613 4.506 22.938 12.288 8.602 12.698 4.915 29.901-7.782 38.093l-396.083 262.144v-65.536l365.773-242.483c4.915-2.867 9.83-4.506 15.155-4.506z" />
<glyph unicode="&#xe92c;" glyph-name="esporte" data-tags="esporte" d="M1015.714 359.502c-0.176-0.18-0.463-0.537-0.602-0.68-32.178-40.104-88.216-74.928-142.754-91.034 15.106 44.712 24.715 91.857 28.107 140.82 42.82 9.392 87.892 43.893 121.106 81.498 1.11-13.894 1.855-27.894 1.855-42.107 0-30.142-2.748-59.748-7.713-88.498zM1013.535 548.893c-30.036-45.036-72.536-81.678-111.714-93.536-2.855 225.001-137.929 418.214-330.179 504.644 220.787-25.891 399.069-194.179 441.893-411.107zM429.036 956.854c242.356-40.071 427.999-252.465 428.462-507.855-92.037 0-204.927 75.608-320.18 215.142-107.246 129.929-217.891 189.002-304.746 215.429 58.356 38.572 124.928 65.356 196.465 77.283zM186.642 845.57c82.784-18.502 201.036-70.287 316.535-210.145 122.892-148.857 247.071-229.999 352.395-231.285-4.354-51.642-16.29-101.143-34.681-147.395-22-3.211-45.285-4.891-70.038-4.891-224.891 0-577.18 168.145-718.356 375.468 31.646 85.75 85.357 160.928 154.145 218.247zM16.286 574.927c161.071-208.286 504.070-367.927 734.568-367.927 16.572 0 32.645 0.75 48.214 2.036-20.5-39.215-45.715-75.608-75.145-108.11-49.070 6.75-116.711-3.891-190.927-15.643-54.215-8.495-110.359-17.355-156.926-18.354-111.321-2.249-196.502 22.286-260.714 56.001-71.713 88.818-114.782 201.961-114.782 325.071 0 43.786 5.427 86.286 15.712 126.927zM747.5-9.429c-53.748-28.287-113.070-47.215-175.862-54.571 62.607 28.18 119.181 67.428 167.072 115.642 5.718-2.429 10.289-5.427 13.107-9.322 6.717-9.286 5.075-27.283-4.317-51.749zM194.572 44.143c48.357-13.718 103.715-22.217 166.928-22.217 5.14 0 10.285 0.074 15.499 0.143 49.644 1.073 107.213 10.211 162.927 18.964 46.215 7.283 98.501 15.499 140.071 16.892-69.857-60.822-156.144-102.892-251.073-118.645-87.568 14.508-167.637 51.507-234.353 104.862zM799.822 22.073c0.893 18.285-2.818 33.964-12.108 46.715-4.927 6.713-11.002 12.284-18.067 16.818 33.21 39.391 61.108 83.464 82.571 131.072 48.566 9.892 104.677 35.602 142.713 61.927-36.393-105.034-105.501-194.785-195.109-256.532z" />
<glyph unicode="&#xe92d;" glyph-name="facebook" data-tags="facebook" horiz-adv-x="481" d="M481.157 959.304h-149.856c0 0-234.418 24.613-234.418-219.361 0-52.118 0-101.089 0-101.089h-95.363l-1.52-191.93h96.879v-510.915h222.253v510.915h128.365l31.228 191.934h-159.592v78.070c0 0-13.689 65.978 65.348 65.978h95.154l1.524 176.398z" />
<glyph unicode="&#xe92e;" glyph-name="fitness" data-tags="fitness" horiz-adv-x="2593" d="M839.704 584.531h914.010v343.788c0 17.459 14.212 31.691 31.691 31.691h134.617c17.427 0 31.691-14.232 31.691-31.691v-960.628c0-17.448-14.264-31.681-31.691-31.681h-134.617c-17.479 0-31.691 14.232-31.691 31.681v357.44h-914.010v-357.44c0-17.448-14.243-31.681-31.691-31.681h-134.607c-17.459 0-31.691 14.232-31.691 31.681v960.628c0 17.459 14.232 31.691 31.691 31.691h134.607c17.448 0 31.691-14.232 31.691-31.691v-343.788zM44.409 369.488h49.658v-286.537c0-13.247 14.232-24.077 31.691-24.077h134.617c17.448 0 31.691 10.83 31.691 24.077v730.098c0 13.247-14.243 24.077-31.691 24.077h-134.617c-17.459 0-31.691-10.83-31.691-24.077v-272.896h-49.658c-24.44 0-44.409-19.948-44.409-44.378v-81.909c0-24.43 19.969-44.378 44.409-44.378v0zM534.184 960h-134.627c-17.427 0-31.681-14.232-31.681-31.691v-960.628c0-17.448 14.253-31.681 31.681-31.681h134.627c17.448 0 31.681 14.232 31.681 31.681v960.639c0 17.448-14.243 31.681-31.681 31.681v0zM2549.009 369.488h-49.689v-286.537c0-13.247-14.201-24.077-31.691-24.077h-134.607c-17.427 0-31.681 10.83-31.681 24.077v730.098c0 13.247 14.253 24.077 31.681 24.077h134.617c17.49 0 31.691-10.83 31.691-24.077v-272.896h49.689c24.43 0 44.357-19.948 44.357-44.378v-81.909c0-24.43-19.928-44.378-44.367-44.378v0zM2059.224 960h134.617c17.448 0 31.691-14.232 31.691-31.691v-960.628c0-17.448-14.243-31.681-31.691-31.681h-134.617c-17.459 0-31.691 14.232-31.691 31.681v960.639c0 17.448 14.232 31.681 31.691 31.681z" />
<glyph unicode="&#xe92f;" glyph-name="ginastica" data-tags="ginastica" horiz-adv-x="1100" d="M1102.643 467.251c0-85.51-69.319-154.829-154.829-154.829s-154.829 69.319-154.829 154.829c0 85.51 69.319 154.829 154.829 154.829s154.829-69.319 154.829-154.829zM532.89 900.608c0-33.48-27.141-60.621-60.621-60.621s-60.621 27.141-60.621 60.621c0 33.48 27.141 60.621 60.621 60.621s60.621-27.141 60.621-60.621zM738.918-4.608c0-33.48-27.141-60.621-60.621-60.621s-60.621 27.141-60.621 60.621c0 33.48 27.141 60.621 60.621 60.621s60.621-27.141 60.621-60.621zM149.914 10.957c0-42.076-34.109-76.186-76.186-76.186s-76.186 34.109-76.186 76.186c0 42.076 34.109 76.186 76.186 76.186s76.186-34.109 76.186-76.186zM405.914 458.24c0-69.674-56.482-126.157-126.157-126.157s-126.157 56.482-126.157 126.157c0 69.674 56.482 126.157 126.157 126.157s126.157-56.482 126.157-126.157zM524.288 931.738c0 0 196.608-383.795 205.619-400.589s12.288-515.686 9.011-535.347c-3.277-20.070-121.242 0-121.242 0l-32.768 336.691h-326.042l-117.146-354.714-143.36 43.418 171.213 498.483 110.182 64.717h279.347l-144.179 295.731 109.363 51.61zM524.288 14.643c0-42.076-34.109-76.186-76.186-76.186s-76.186 34.109-76.186 76.186c0 42.076 34.109 76.186 76.186 76.186s76.186-34.109 76.186-76.186zM383.795-25.907c0 0-108.954 219.546-109.363 224.051s21.709 65.946 26.624 70.042c4.915 3.686 91.75 5.325 95.846 2.458s118.374-212.582 118.374-219.955c-0.41-7.782-110.592-78.234-115.507-78.234s-15.974 1.638-15.974 1.638z" />
<glyph unicode="&#xe930;" glyph-name="habitantes" data-tags="habitantes" horiz-adv-x="2062" d="M1582.149 82.988c3.762-0.025 7.482-0.066 11.268-0.066 190.699 0 360.347 17.199 468.821 43.926-1.279 9.057-5.585 20.919-11.392 33.672-28.36 62.527-69.118 122.324-131.34 154.767-56.2 29.3-112.318 30.439-161.613 57.594-18.478 10.163-40.288 30.274-51.68 47.522 26.842 27.18 47.374 59.97 55.763 94.261 27.238 16.415 37.458 65.777 40.288 93.593 2.475 24.268 2.334 66.726-14.551 89.716 2.029 32.996-2.829 71.518-15.343 101.124-15.186 35.941-43.307 65.48-91.712 66.965-8.241 0.074-8.191 1.105-13.932 5.345-49.774 41.599-166.86 29.457-228.026-26.529-38.424-35.157-46.376-97.28-43.332-146.906-16.894-22.998-17.009-65.447-14.551-89.716 2.829-27.815 13.033-77.177 40.288-93.593 8.95-36.609 31.585-71.84 61.092-100.068-13.396-14.007-29.952-27.725-46.598-37.863-50.896-30.958-109.538-30.835-168.279-61.446-9.041-4.71-17.504-10.154-25.662-15.945-1.147 0.594-2.293 1.138-3.423 1.757-23.254 12.802-50.715 38.118-65.084 59.838 33.829 34.217 59.665 75.511 70.24 118.694 34.299 20.664 47.176 82.828 50.723 117.845 3.11 30.562 2.945 84.016-18.329 112.969 2.565 41.542-3.555 90.054-19.327 127.339-19.113 45.254-54.526 82.448-115.485 84.313-10.369 0.091-10.311 1.394-17.537 6.731-62.659 52.381-210.084 37.087-287.121-33.408-48.372-44.272-58.386-122.497-54.55-184.974-21.258-28.954-21.431-82.407-18.313-112.969 3.555-35.025 16.407-97.181 50.706-117.845 11.285-46.095 39.768-90.466 76.946-125.994-16.877-17.645-37.714-34.926-58.7-47.679-3.877-2.359-7.795-4.57-11.747-6.657-8.183 5.807-16.671 11.26-25.737 15.986-56.2 29.3-112.301 30.439-161.605 57.594-18.469 10.163-40.28 30.274-51.68 47.522 26.85 27.18 47.382 59.97 55.771 94.261 27.238 16.415 37.458 65.777 40.288 93.593 2.475 24.268 2.334 66.726-14.551 89.716 2.029 32.996-2.829 71.518-15.351 101.124-15.186 35.941-43.307 65.48-91.72 66.965-8.232 0.074-8.183 1.105-13.924 5.345-49.766 41.599-166.852 29.457-228.026-26.529-38.415-35.157-46.376-97.28-43.332-146.906-16.886-22.998-17.009-65.447-14.551-89.716 2.829-27.815 13.033-77.177 40.288-93.593 8.958-36.609 31.577-71.84 61.1-100.068-13.396-14.007-29.952-27.725-46.607-37.863-50.888-30.958-109.53-30.835-168.27-61.446-62.238-32.435-102.972-92.232-131.356-154.759-5.791-12.753-10.097-24.623-11.392-33.672 108.474-26.727 278.13-43.926 468.837-43.926 3.786 0 7.498 0.041 11.268 0.066-9.082-16.077-17.397-32.583-24.978-49.271-7.3-16.069-12.712-31.016-14.337-42.408 136.594-33.664 350.201-55.317 590.328-55.317s453.734 21.653 590.328 55.317c-1.609 11.392-7.045 26.331-14.32 42.408-7.564 16.679-15.887 33.186-24.978 49.263z" />
<glyph unicode="&#xe931;" glyph-name="historia" data-tags="historia" horiz-adv-x="1037" d="M983.155 717.042c-0.139 0-0.279-0.070-0.467-0.070v0.070h-57.246l-36.049-57.995-36.094 57.995h-0.090l-36.094-57.995-36.049 57.995h-57.901c-0.049 0-0.094 0-0.143 0-29.61 0-53.576-23.97-53.576-53.58v-260.301c0-29.61 23.97-53.625 53.576-53.625 0.049 0 0.094 0.045 0.143 0.045v-334.254c0-32.854 26.599-59.498 59.498-59.498 32.805 0 59.404 26.649 59.404 59.498v334.209h21.713v-333.922c0-32.805 26.649-59.408 59.503-59.408 32.756 0 59.404 26.604 59.404 59.408v333.967c0.188 0 0.328-0.045 0.467-0.045 29.61 0 53.531 24.015 53.531 53.625v260.305c0.004 29.606-23.917 53.576-53.531 53.576zM852.922 725.197c52.593 0 95.269 42.627 95.269 95.24 0 52.548-42.676 95.195-95.269 95.195s-95.216-42.652-95.216-95.195c0-52.613 42.627-95.24 95.216-95.24zM629.916 14.864c-3.101 0-6.013-0.565-8.88-1.364l-0.049 0.188c-34.873-8.79-71.393-13.488-108.986-13.488-246.882 0-447.754 200.872-447.754 447.799 0 246.907 200.872 447.754 447.754 447.754 48.034 0 94.278-7.709 137.703-21.762l0.049 0.143c2.585-0.729 5.308-1.196 8.176-1.196 17.768 0 32.1 14.381 32.1 32.145 0 13.677-8.552 25.26-20.582 29.893l0.049 0.139c-49.684 16.118-102.605 24.883-157.495 24.883-282.321 0-512-229.704-512-512 0-282.321 229.679-512 512-512 42.721 0 84.222 5.313 123.982 15.229 14.803 2.818 26.038 15.79 26.038 31.49 0 17.76-14.336 32.145-32.104 32.145zM537.235 856.535h-26.833c-13.21 0-23.876-10.695-23.876-23.876v-330.514c-4.137-2.54-8.036-5.64-11.657-9.212-3.899-3.899-7.094-8.18-9.822-12.689h-219.435c-9.163 0-16.589-7.422-16.589-16.638v-18.706c0-0.049 0-0.049 0-0.094v-18.702c0-9.122 7.377-16.544 16.544-16.544h221.737c2.208-3.293 4.698-6.394 7.565-9.306 25.567-25.518 67.068-25.518 92.68 0.094 25.518 25.567 25.518 67.019 0 92.586-2.068 2.023-4.231 3.809-6.394 5.452v334.275c0.004 13.181-10.711 23.876-23.921 23.876z" />
<glyph unicode="&#xe932;" glyph-name="iluminacao_publica" data-tags="iluminacao_publica" horiz-adv-x="910" d="M670.433 642.421c46.584 13.451 78.934 52.052 86.872 96.76l-211.943-61.194c30.544-33.579 78.504-49 125.071-35.566zM901.177 903.762c-26.243 65.589-157.417 78.709-354.169 13.119-94.024-31.343-152.977-60.51-187.081-89.924-39.047-18.858-78.414-38.572-116.204-61.854-41.341-25.145-81.392-54.067-116.613-89.281-35.074-35.103-65.573-76.399-86.319-122.692-20.935-46.203-31.859-96.58-34.275-146.407l-4.035-282.243-2.478-137.736 71.77-50.745-3.387 188.482-1.917 140.468-0.913 70.246-0.41 35.119-0.188 17.412c-0.029 5.485 0.082 10.949 0.283 16.409 1.536 43.655 10.359 86.524 27.562 125.948 17.093 39.465 42.377 75.424 73.703 106.238 31.166 30.966 67.457 57.483 106.25 80.642 15.757 9.294 31.924 17.977 48.308 26.423 0.565-5.501 1.507-11.051 2.92-16.699 13.136-52.466 91.845-59.036 91.845-59.036l472.224 131.166c0.004 0 39.367 39.354 13.124 104.944z" />
<glyph unicode="&#xe933;" glyph-name="insercao_urbana" data-tags="insercao_urbana" horiz-adv-x="1224" d="M864.284 959.503c-6.531 0.335-13.106 0.497-19.726 0.497-6.605 0-13.185-0.158-19.711-0.497-202.493-10.269-363.519-177.694-363.519-382.738 0-241.911 383.23-640.77 383.23-640.77s383.23 398.859 383.23 640.77c0 205.044-161.016 372.468-363.504 382.738zM844.558 385.275c-105.753 0-191.495 85.731-191.495 191.49 0 105.763 85.741 191.504 191.495 191.504 105.768 0 191.499-85.741 191.499-191.504 0-105.753-85.736-191.49-191.499-191.49zM297.13 288.506c-82.978 0-150.244 67.266-150.244 150.244 0 82.993 67.266 150.264 150.244 150.264 46.146 0 87.411-20.82 114.978-53.559-1.911 14.279-2.896 28.065-2.896 41.314 0 45.949 7.137 90.278 20.342 131.932-35.601 17.505-75.127 28.237-116.944 30.36-5.122 0.261-10.289 0.394-15.481 0.394-5.182 0-10.358-0.133-15.471-0.394-158.874-8.063-285.22-139.423-285.22-300.311 0-189.81 300.691-502.75 300.691-502.75s148.107 154.15 236.429 311.689c-38.024 60.38-67.365 116.338-87.982 167.715-11.22-71.886-73.398-126.898-148.447-126.898z" />
<glyph unicode="&#xe934;" glyph-name="jogos" data-tags="jogos" horiz-adv-x="976" d="M861.063 634.126h-465.417c-64.436 0.41-116.97-50.892-117.38-115.328 0-0.41 0-0.821 0-1.231v-465.417c0-64.436 52.123-116.56 116.56-116.56h465.417c64.436 0 116.56 52.123 116.56 116.56v465.828c-0.41 63.615-51.713 115.739-115.739 116.149zM930.834 52.149c-0.41-38.169-31.602-68.54-69.772-68.951h-465.417c-38.58 0-69.772 31.192-69.772 69.772v0 465.007c0 38.58 31.192 69.772 69.772 69.772v0h465.417c38.58 0 69.772-31.192 69.772-69.772v-465.828zM511.795 447.795c0-25.614-20.764-46.378-46.378-46.378s-46.378 20.764-46.378 46.378c0 25.614 20.764 46.378 46.378 46.378s46.378-20.764 46.378-46.378zM837.669 447.795c0-25.614-20.764-46.378-46.378-46.378s-46.378 20.764-46.378 46.378c0 25.614 20.764 46.378 46.378 46.378s46.378-20.764 46.378-46.378zM674.732 285.268c0-25.614-20.764-46.378-46.378-46.378s-46.378 20.764-46.378 46.378c0 25.614 20.764 46.378 46.378 46.378s46.378-20.764 46.378-46.378zM511.795 122.331c0-25.614-20.764-46.378-46.378-46.378s-46.378 20.764-46.378 46.378c0 25.614 20.764 46.378 46.378 46.378s46.378-20.764 46.378-46.378zM395.646 680.503h210.546v162.937c0 64.436-52.123 116.56-116.56 116.56-0.41 0-0.821 0-1.231 0h-371.841c-64.436 0-116.56-52.123-116.56-116.56v-372.252c0-64.436 52.123-116.56 116.56-116.56h116.56v162.937c-0.41 90.293 72.644 162.937 162.527 162.937zM465.417 867.245c25.857 0 46.378-20.931 46.378-46.378s-20.931-46.378-46.378-46.378c-25.857 0-46.378 20.931-46.378 46.378 0 25.857 20.521 46.378 46.378 46.378v0zM139.543 448.616c-25.857 0-46.378 20.931-46.378 46.378 0 25.857 20.931 46.378 46.378 46.378 25.857 0 46.378-20.931 46.378-46.378 0.41-25.857-20.111-46.788-45.967-47.198-0.41 0-0.41 0-0.821 0v0.821zM139.543 774.49c-25.857 0-46.378 20.931-46.378 46.378s20.521 46.378 46.378 46.378c25.857 0 46.378-20.931 46.378-46.378 0.41-25.857-20.111-46.788-45.967-47.198-0.41 0-0.41 0-0.821 0v0.821zM837.669 122.331c0-25.614-20.764-46.378-46.378-46.378s-46.378 20.764-46.378 46.378c0 25.614 20.764 46.378 46.378 46.378s46.378-20.764 46.378-46.378z" />
<glyph unicode="&#xe935;" glyph-name="lazer" data-tags="lazer" d="M511.992 960c-282.73 0-511.984-229.253-511.984-512s229.253-512 511.984-512c282.759 0 512 229.253 512 512s-229.241 512-512 512zM658.276 667.427c40.378 0 73.142-32.731 73.142-73.142 0-40.415-32.764-73.142-73.142-73.142s-73.142 32.731-73.142 73.142c-0.004 40.415 32.764 73.142 73.142 73.142zM365.703 667.427c40.382 0 73.142-32.731 73.142-73.142 0-40.415-32.76-73.142-73.142-73.142-40.378 0-73.138 32.731-73.138 73.142 0 40.415 32.76 73.142 73.138 73.142zM511.992 57.905c-192.414 0-358.224 143.749-385.683 334.381-3.842 26.653 14.635 51.368 41.304 55.21 26.599 3.903 51.364-14.631 55.206-41.304 20.603-142.95 144.921-250.761 289.178-250.761 144.253 0 268.567 107.807 289.174 250.761 3.842 26.673 28.574 45.208 55.239 41.304 26.632-3.842 45.142-28.557 41.3-55.21-27.464-190.636-193.303-334.381-385.716-334.381z" />
<glyph unicode="&#xe936;" glyph-name="licenciamento_ambiental" data-tags="licenciamento_ambiental" horiz-adv-x="983" d="M983.11-19.558c0 44.446-44.446 40.886-44.446 40.886-47.055 0-85.336 38.281-85.336 85.336v810.668c0 23.568-19.096 42.668-42.664 42.668-23.572 0-42.668-19.1-42.668-42.668h-106.668c0 23.568-19.096 42.668-42.664 42.668-23.572 0-42.668-19.1-42.668-42.668h-106.664c0 23.568-19.096 42.668-42.664 42.668-23.572 0-42.668-19.1-42.668-42.668h-106.668c0 23.568-19.096 42.668-42.664 42.668-23.572 0-42.668-19.1-42.668-42.668h-106.668c0 23.568-19.1 42.668-42.668 42.668s-42.668-19.1-42.668-42.668v-810.664c0-94.114 76.554-170.668 170.668-170.668h768c49.775 0 44.446 44.442 44.446 44.442zM170.668 21.332c-47.055 0-85.332 38.281-85.332 85.336v725.332h682.664v-725.332c0-31.101 8.499-60.195 23.085-85.336h-620.417zM162.959 519.111h519.107v-42.668h-519.107v42.668zM162.652 391.111h213.332v-42.668h-213.332v42.668zM162.959 647.111h519.107v-42.668h-519.107v42.668zM162.959 775.111h519.107v-42.668h-519.107v42.668zM375.988 220.443v42.668l-213.336-0.016v-42.664h213.336zM162.652 135.094h520.012v-42.664h-520.012v42.664zM558.318 434.622l-41.611-84.32-93.041-13.513 67.318-65.638-15.888-92.664 83.223 43.762 83.223-43.762-15.892 92.664 67.338 65.638-93.057 13.513z" />
<glyph unicode="&#xe937;" glyph-name="linkedin" data-tags="linkedin" d="M12.976 626.926h219.501v-690.926h-219.501v690.926zM124.174 960c-75.1 0-124.174-51.597-124.174-119.398 0-66.302 47.624-119.378 121.299-119.378h1.425c76.55 0 124.174 53.076 124.174 119.378-1.397 67.801-47.624 119.398-122.724 119.398zM771.252 643.125c-116.601 0-168.706-67.101-197.8-114.176v-2.249h-1.45c0.451 0.7 0.999 1.524 1.45 2.249v97.976h-219.501c2.875-64.823 0-690.926 0-690.926h219.501v385.802c0 20.648 1.401 41.3 7.201 56.050 15.897 41.251 51.999 84.029 112.648 84.029 79.446 0 111.198-63.377 111.198-156.275v-369.607h219.501v396.153c0 212.226-108.253 310.972-252.748 310.972z" />
</font>
</defs>
</svg>
